Quick Browse
Movies
TV shows
Music
Games
Applications
Anime
Other
Facebook
Advertising

Friends
Torrent Download
Movie4u
1337x.to
Torrent Downloads




Bow Wow feat Johnta Austin - You Can Get It All {XVID} [Solly4Life]


    Seeders : 13      Leechers : 2

Trackers List

Tracker NameLast CheckStatusSeedersLeechers




Torrent File Content (1 file)


     Bow Wow feat. Johnta Austin - You Can Get It All {XVID} [Solly4Life].rar -
42.48 MB



Description



General
Complete name : Bow Wow feat. Johnta Austin - You Can Get It All {XVID} [Solly4Life].avi
Format : AVI
Format/Info : Audio Video Interleave
File size : 43.2 MiB
Duration : 3mn 47s
Overall bit rate : 1 594 Kbps
Writing library : Boilsoft Joiner build 2411/release

Video
Format : MPEG-4 Visual
Format profile : Streaming [email protected]
Format settings, BVOP : Yes
Format settings, QPel : No
Format settings, GMC : No warppoints
Format settings, Matrix : Default (H.263)
Muxing mode : Packed bitstream
Codec ID : XVID
Codec ID/Hint : XviD
Duration : 3mn 47s
Bit rate : 1 392 Kbps
Width : 640 pixels
Height : 480 pixels
Display aspect ratio : 4/3
Frame rate : 25.000 fps
Resolution : 24 bits
Colorimetry : 4:2:0
Scan type : Interlaced
Scan order : Bottom Field First
Bits/(Pixel*Frame) : 0.181
Stream size : 37.7 MiB (87%)
Writing library : XviD 1.1.2 (UTC 2006-11-01)

Audio
Format : MPEG Audio
Format version : Version 1
Format profile : Layer 3
Codec ID : 55
Codec ID/Hint : MP3
Duration : 3mn 47s
Bit rate mode : Constant
Bit rate : 192 Kbps
Channel(s) : 2 channels
Sampling rate : 48.0 KHz
Resolution : 16 bits
Stream size : 5.20 MiB (12%)
Alignment : Split accross interleaves
Interleave, duration : 40 ms (1.00 video frame)
Interleave, preload duration : 500 ms
Writing library : LAME3.97


Related torrents

Torrent NameAddedSizeSeedLeechHealth
1 Year+ - in TV shows244.08 MB512
1 Year+ - in Other58.77 MB00
1 Year+ - in Music47.4 MB00
1 Year+ - in Music8.81 MB00
1 Year+ - in Other1.29 GB23

Comments (0 Comments)




Please login or create a FREE account to post comments

Latest Searches

| enemy mine dvd | lil jan | Warren Buffett Dr Soc | inventory system unity asset | radio music videos | The Flash S01 season | SeducedByACougar NaughtyAmerica India Summer Julia Ann Logan Long | kannada full new movie | paintoy miss | Ringtone Sound |