Quick Browse
Movies
TV shows
Music
Games
Applications
Anime
Other
Facebook
Advertising

Friends
Torrent Download
Movie4u
1337x.to
Torrent Downloads




Boy.A.2007.iTALiAN.LiMiTED.DVDRip.XviD-MvN.[ultimafrontiera]


    Seeders : 4      Leechers : 2

Trackers List

Tracker NameLast CheckStatusSeedersLeechers




Torrent File Content (2 files)


Boy.A.2007.iTALiAN.LiMiTED.DVDRip.XviD-MvN.avi
     Boy.A.2007.iTALiAN.LiMiTED.DVDRip.XviD-MvN.CD1 -
698.38 MB

     Boy.A.2007.iTALiAN.LiMiTED.DVDRip.XviD-MvN.CD2 -
700.27 MB



Description



http://i35.tinypic.com/23vevc8.jpg


http://i38.tinypic.com/2nhdmp4.jpg


http://i36.tinypic.com/2wlzn9f.jpg


Titolo originale: Boy a
Nazione:USA
Anno: 2007
Genere: Drammatico
Durata: 100
Regia: John Crowley



http://i34.tinypic.com/301n9ec.jpg


[color=#00FF00]Andrew Garfield, Peter Mullan, Siobhan Finneran, Alfie Owen, Skye Bennett, Leigh Symonds, Maria Gough, Victoria Brazier, Taylor Doherty, Jeremy Swift[/color]

http://i33.tinypic.com/2ldeeyr.jpg


[color=orange]Jack ha 24 anni ed è come se fosse appena nato. Non si è mai ubriacato, non ha mai avuto una ragazza, non si è mai regalato un paio di scarpe. «Jack» non è il suo vero nome, se lo è scelto da solo. Ha passato quasi tutta la vita in prigione, e ne è uscito con un lavoro, una diversa identità e un amico, Terry. Terry è il suo tutore, l’unico che sappia chi sia veramente Jack. Jack cammina libero nella sua nuova vita, mentre la gente si interroga su dove sia, ora, il mostro che anni prima ha compiuto un crimine spaventoso. Che un mostro si nasconda in Inghilterra, e che possa essere stato perdonato, per l’opinione pubblica e i tabloid è qualcosa di intollerabile. Una bomba a orologeria.
Indirettamente ispirato a un vero fatto di cronaca del 1993, l’assassinio del piccolo James Bulger per mano di due bambini poco più grandi, Boy A è un romanzo d’esordio struggente e appassionato. Il lucido, spietato racconto di come sia difficile lasciarsi il passato alle spalle. Chi decide a chi è concessa una seconda possibilità
[/color]

http://i38.tinypic.com/2ihuvd2.jpg


[color=red]Nel 1978 Scorsese gira un documentario sul suo amico Steven Prince. Un film perduto da anni, in cui il regista di "Toro Scatenato" e "Il padrino" svelava una vita affascinante, sorprendente e pericolosa, incastonata al tramonto di un’epoca, capace di passare
indenne (o quasi) attraverso la droga, la criminalità, il cinema e un’indole che cede senza ansia ad ogni avventura. Trent’anni dopo, il regista Tommy Pallotta si rimette sulle tracce di Prince per realizzare un nuovo capitolo della saga della sua vita. L’infanzia, lo sballo, le armi e una serie di racconti iperbolici a cui lo stesso Tatantino ammette di essersi ispirato.
[/color]

http://i34.tinypic.com/1z1495e.jpg


[code]

Format : AVI
Format/Info : Audio Video Interleave
File size : 700 MiB
Duration : 50mn 36s
Overall bit rate : 1 934 Kbps
Writing application : VirtualDubMod 1.5.10.2 (build 2540/release)
Writing library : VirtualDubMod build 2540/release

Video

ID : 0
Format : MPEG-4 Visual
Format profile : [email protected]
Format settings, BVOP : Yes
Format settings, QPel : No
Format settings, GMC : No warppoints
Format settings, Matrix : Default (MPEG)
Codec ID : XVID
Codec ID/Hint : XviD
Duration : 50mn 36s
Bit rate : 1 477 Kbps
Width : 624 pixels
Height : 336 pixels
Display aspect ratio : 1.857
Frame rate : 25.000 fps
Resolution : 24 bits
Colorimetry : 4:2:0
Scan type : Progressive
Bits/(Pixel*Frame) : 0.282
Stream size : 535 MiB (76%)
Writing library : XviD 1.2.1 (UTC 2008-12-04)

Audio

ID : 1
Format : AC-3
Format/Info : Audio Coding 3
Codec ID : 2000
Duration : 50mn 36s
Bit rate mode : Constant
Bit rate : 448 Kbps
Channel(s) : 6 channels
Channel positions : Front: L C R, Surround: L R, LFE
Sampling rate : 48.0 KHz
Video delay : 24ms
Stream size : 162 MiB (23%) [/code]


http://i38.tinypic.com/34hbbjr.jpg


http://www.youtube.com/watch?v=4VaSQNUt9H4

Related torrents

Torrent NameAddedSizeSeedLeechHealth
1 Year+ - in Movies699.94 MB82
1 Year+ - in Movies1.37 GB940
1 Year+ - in Movies699.01 MB10
1 Year+ - in Movies1009 bytes00
1 Year+ - in Movies1.36 GB01

Comments (0 Comments)




Please login or create a FREE account to post comments

Latest Searches

| 22 Pistons | Stellaris Update v1 4 incl DLC CODEX | young vu | indigo league season 1 | Right Said Fred Up | fairytales flac | deadpool dayt | ValhallaRoom v1 1 1 3 | love elan | 1988 straight outta compton |