Quick Browse
Movies
TV shows
Music
Games
Applications
Anime
Other
Facebook
Advertising

Friends
Torrent Download
Movie4u
1337x.to
Torrent Downloads




Brand X - The Plot Thins - A History Of Brand X [Eac Flac Cue-TNTVillage]


    Seeders : 1      Leechers : 12

Trackers List

Tracker NameLast CheckStatusSeedersLeechers




Torrent File Content (16 files)


Brand X (1992) - The Plot Thins - A History Of Brand X
     03 - Why Should I Lend You Mine.flac -
54.9 MB

     05 - Malaga Virgin.flac -
51.5 MB

     02 - Born Ugly.flac -
48.89 MB

     04 - Disco Suicide.flac -
47.79 MB

     09 - Algon.flac -
42.59 MB

     08 - Dance Of The Illegal Aliens.flac -
41.99 MB

     10 - Triumphant Limp.flac -
40.39 MB

     01 - Nuclear Burn.flac -
39.02 MB

     07 - The Poke.flac -
31.46 MB

     06 - Isis Mourning Part 1.flac -
23.77 MB

    cover
          front.jpg -
702.68 KB

          back.jpg -
473.1 KB

          cd.jpg -
250.08 KB

     Brand X - The Plot Thins - A History Of Brand X.log -
10.65 KB

     The Plot Thins - A History Of Brand X.cue -
1.48 KB

     Brand X - The Plot Thins - A History Of Brand X.m3u -
268 bytes



Description



.: Original Release:.
http://www.tntvillage.scambioetico.org/?act=showrelease&id=264438

[::Cover::]

http://img24.imageshack.us/img24/7973/coverjsnq.jpg


Artist: Brand X
Title: The Plot Thins - A History Of Brand X
Genre: Jazz
Year: 1992

[ :: Tracklist :: ]
1. Nuclear Burn [6:22]
2. Born Ugly [8:15]
3. Why Should I Lend You Mine? [11:12]
4. Disco Suicide [7:49]
5. Malaga Virgin [8:53]
6. Isis Mourning Part 1 [4:43]
7. The Poke [5:07]
8. Dance Of The Illegal Aliens [7:51]
9. Algon [7:06]
10. Triumphant Limp [7:34]

[ :: Technical Data :: ]
Encoder: EAC 1.02 b2 (Secure Mode,Test & Copy)
Codec: Flac 1.2.1
Profile: 6

EAC LOG:

Exact Audio Copy V1.0 beta 2 from 29. April 2011

EAC extraction logfile from 11. September 2011, 22:19

Brand X / The Plot Thins - A History Of Brand X

Used drive : JLMS XJ-HD166S Adapter: 1 ID: 0

Read mode : Secure
Utilize accurate stream : Yes
Defeat audio cache : Yes
Make use of C2 pointers : Yes

Read offset correction : 12
Overread into Lead-In and Lead-Out : No
Fill up missing offset samples with silence : Yes
Delete leading and trailing silent blocks : No
Null samples used in CRC calculations : Yes
Used interface : Installed external ASPI interface
Gap handling : Appended to previous track

Used output format : User Defined Encoder
Selected bitrate : 768 kBit/s
Quality : High
Add ID3 tag : No
Command line compressor : C:\Programmi\Exact Audio Copy\FLAC\FLAC.EXE
Additional command line options : -6 -V -T "ARTIST=%artist%" -T "TITLE=%title%"
-T "ALBUM=%albumtitle%" -T "DATE=%year%" -T "TRACKNUMBER=%tracknr%" -T "GENRE=%genre%"
-T "COMMENT=EAC1.0b2 Secure Mode, Test & Copy, AccurateRip, FLAC 1.2.1 -6 (by Paky)"


TOC of the extracted CD

Track | Start | Length | Start sector | End sector
---------------------------------------------------------
1 | 0:00.50 | 6:22.10 | 50 | 28709
2 | 6:22.60 | 8:15.05 | 28710 | 65839
3 | 14:37.65 | 11:12.62 | 65840 | 116301
4 | 25:50.52 | 7:49.70 | 116302 | 151546
5 | 33:40.47 | 8:53.63 | 151547 | 191584
6 | 42:34.35 | 4:43.35 | 191585 | 212844
7 | 47:17.70 | 5:07.40 | 212845 | 235909
8 | 52:25.35 | 7:51.05 | 235910 | 271239
9 | 60:16.40 | 7:06.15 | 271240 | 303204
10 | 67:22.55 | 7:33.70 | 303205 | 337249


Track 1

Filename D:\Brand X (1992) - The Plot Thins - A History Of Brand X\01 - Nuclear Burn.wav

Pre-gap length 0:00:02.50

Peak level 100.0 %
Extraction speed 11.8 X
Track quality 100.0 %
Test CRC 1D6F0B45
Copy CRC 1D6F0B45
Accurately ripped (confidence 15) [B805CDD9] (AR v1)
Copy OK

Track 2

Filename D:\Brand X (1992) - The Plot Thins - A History Of Brand X\02 - Born Ugly.wav

Peak level 84.6 %
Extraction speed 13.6 X
Track quality 100.0 %
Test CRC D7B4A52E
Copy CRC D7B4A52E
Accurately ripped (confidence 14) [F37B1EC3] (AR v1)
Copy OK

Track 3

Filename D:\Brand X (1992) - The Plot Thins - A History Of Brand X\03 - Why Should I Lend You Mine.wav

Peak level 68.5 %
Extraction speed 10.6 X
Track quality 100.0 %
Test CRC 6E967421
Copy CRC D870DFB9
Accurately ripped (confidence 14) [87F3293A] (AR v1)
Copy OK

Track 4

Filename D:\Brand X (1992) - The Plot Thins - A History Of Brand X\04 - Disco Suicide.wav

Peak level 90.3 %
Extraction speed 13.1 X
Track quality 100.0 %
Test CRC DF42D0A9
Copy CRC DF42D0A9
Accurately ripped (confidence 14) [8D35CADA] (AR v1)
Copy OK

Track 5

Filename D:\Brand X (1992) - The Plot Thins - A History Of Brand X\05 - Malaga Virgin.wav

Peak level 92.0 %
Extraction speed 10.6 X
Track quality 99.9 %
Test CRC 16AFEAB0
Copy CRC 16AFEAB0
Accurately ripped (confidence 14) [92F0E4EC] (AR v1)
Copy OK

Track 6

Filename D:\Brand X (1992) - The Plot Thins - A History Of Brand X\06 - Isis Mourning Part 1.wav

Peak level 76.7 %
Extraction speed 13.8 X
Track quality 100.0 %
Test CRC A27ABD99
Copy CRC A27ABD99
Accurately ripped (confidence 14) [F0ED770F] (AR v1)
Copy OK

Track 7

Filename D:\Brand X (1992) - The Plot Thins - A History Of Brand X\07 - The Poke.wav

Peak level 95.2 %
Extraction speed 12.8 X
Track quality 100.0 %
Test CRC 52DF97BD
Copy CRC 52DF97BD
Accurately ripped (confidence 14) [6C20B4E5] (AR v1)
Copy OK

Track 8

Filename D:\Brand X (1992) - The Plot Thins - A History Of Brand X\08 - Dance Of The Illegal Aliens.wav

Peak level 99.9 %
Extraction speed 15.3 X
Track quality 100.0 %
Test CRC FED7110F
Copy CRC FED7110F
Accurately ripped (confidence 14) [7D892676] (AR v1)
Copy OK

Track 9

Filename D:\Brand X (1992) - The Plot Thins - A History Of Brand X\09 - Algon.wav

Peak level 70.6 %
Extraction speed 16.6 X
Track quality 100.0 %
Test CRC 8CB4F4CD
Copy CRC 8CB4F4CD
Accurately ripped (confidence 14) [4DE41558] (AR v1)
Copy OK

Track 10

Filename D:\Brand X (1992) - The Plot Thins - A History Of Brand X\10 - Triumphant Limp.wav

Peak level 73.5 %
Extraction speed 17.2 X
Track quality 100.0 %
Test CRC 82E13A51
Copy CRC 82E13A51
Accurately ripped (confidence 14) [1D98D273] (AR v1)
Copy OK


All tracks accurately ripped

No errors occurred

End of status report

==== Log checksum F3234B887BA428627058D2F1E4936C25C306E0FB457CF9E082CCE79F99B22BD2 ====

Related torrents

Torrent NameAddedSizeSeedLeechHealth
Verified torrent
1 Year+ - in Music396.76 MB50
Verified torrent
1 Year+ - in Music176.75 MB25
Verified torrent
1 Year+ - in Music202.55 MB6475
Verified torrent
1 Year+ - in Music159.78 MB2018
Verified torrent
1 Year+ - in Music282.85 MB1234

Comments (0 Comments)




Please login or create a FREE account to post comments

Latest Searches

| Bouncy Porn Audition | porn male to male | Bertot Tony | she so cute xxx | club new released | Hairspray Live | feel Robbie | clips4sale penis | fuck of a lifetime | Big Wet Interracial Tits 720p |