Quick Browse
Movies
TV shows
Music
Games
Applications
Anime
Other
Facebook
Advertising

Friends
Torrent Download
Movie4u
1337x.to
Torrent Downloads




Verified torrent Breaking Wind 2011 DVDRip XviD AC3-26k


    Seeders : 0      Leechers : 0
Hash :6E6B27D7BFA3FD439F046BD37B364AA3739F5B7E
Added :1 Year+ by memory100Verified torrent uploader in Movies
Size :1.25 GB
Stream :WATCH ONLINE @ Movie4u


Breaking Wind 2011 DVDRip XviD AC3-26k
Free and Fast Download with Usenet 300GB+ free







Trackers List

Tracker NameLast CheckStatusSeedersLeechers




Torrent File Content (13 files)


Breaking Wind 2011 DVDRip XviD AC3-26k
     1.png -
296.18 KB

     2.png -
356.3 KB

     26k nfo.nfo -
3.33 KB

     3.png -
347.63 KB

     4.png -
419.92 KB

     att-networks.com.txt -
39 bytes

     Breaking Wind 2011 DVDRip XviD AC3-26k.avi -
1.24 GB

     Breaking Wind 2011 DVDRip XviD AC3-26k.jpg -
162.96 KB

     HDSceneRG.txt -
115 bytes

     sceneunderground.org.txt -
77 bytes

     Torrent downloaded from Demonoid.me.txt -
46 bytes

     Torrent downloaded from rarbg.com.txt.txt -
0 bytes

     YouTube Latest Releases And Archive.txt -
80 bytes



Description



http://img88.imageshack.us/img88/4803/breakingo.jpg

[code]

Breaking Wind 2011 DVDRip XviD AC3-26k

http://www.imdb.com/title/tt1651323/

Plot:
A comedic spoof based on the worldwide phenomenon, The Twilight Saga.

Sources - Breaking Wind Retail Pal DVDR Legend-Rg.....Thanks :P

Format : AVI
Format/Info : Audio Video Interleave
File size : 1.24 GiB
Duration : 1h 18mn
Overall bit rate : 2 267 Kbps

Video
ID : 0
Format : MPEG-4 Visual
Format profile : Advanced [email protected]
Format settings, BVOP : 2
Format settings, QPel : No
Format settings, GMC : No warppoints
Format settings, Matrix : Default (H.263)
Codec ID : XVID
Codec ID/Hint : XviD
Duration : 1h 18mn
Bit rate : 1 812 Kbps
Width : 720 pixels
Height : 400 pixels
Display aspect ratio : 16:9
Frame rate : 25.000 fps
Color space : YUV
Chroma subsampling : 4:2:0
Bit depth : 8 bits
Scan type : Progressive
Compression mode : Lossy
Bits/(Pixel*Frame) : 0.252
Stream size : 1 017 MiB (80%)
Writing library : XviD 1.2.1 (UTC 2008-12-04)

Audio
ID : 1
Format : AC-3
Format/Info : Audio Coding 3
Mode extension : CM (complete main)
Codec ID : 2000
Duration : 1h 18mn
Bit rate mode : Constant
Bit rate : 448 Kbps
Channel(s) : 6 channels
Channel positions : Front: L C R, Side: L R, LFE
Sampling rate : 48.0 KHz
Bit depth : 16 bits
Compression mode : Lossy
Stream size : 252 MiB (20%)
Alignment : Aligned on interleaves
Interleave, duration : 64 ms (1.60 video frames)
Interleave, preload duration : 192 ms


Notes -

Did my thing.. turned out real nice...enjoy

[/code]

Screens:
http://i.imgur.com/8LOew.png

http://i.imgur.com/gbG4j.png

http://img39.imageshack.us/img39/7928/21329106.png

http://img138.imageshack.us/img138/1499/58679230.png

http://img23.imageshack.us/img23/2183/breakingwind2011dvdripx.jpg


Greetz:
Xtreme Encode|FYA|ILLUMANTI|CM8|RX|VISI​ON|HDSCENE|xTriLL|DTRG|CRYS|REMIX​HD|BIDA|RX|REFILL|INSPiRAL|SIC|
|HO​PE|Anonymous|GooN|miRaGe
To all the people who have helped me you know who you are

Anything to offer email us @: [email protected]


http://img851.imageshack.us/img851/5503/26ks.jpg

Thank you smallz for banner!

Related torrents

Torrent NameAddedSizeSeedLeechHealth
1 Year+ - in Movies1.39 GB00
1 Year+ - in Movies1.01 GB00
1 Year+ - in Movies1.48 GB07
1 Year+ - in Movies499.93 MB113
1 Year+ - in Movies499.93 MB00

Comments (0 Comments)




Please login or create a FREE account to post comments

Latest Searches

| Treasure Quest Snake Island s02e06 | White Perv Drills Busty Black Teen | big sean ft lol wayne | qi s14e07 | punk s dead slc 2 | Elektra Rose Gets A Load To The Face | Brenna Sparks Fucks Her Roommate | La Casa dei Ragazzi italian | 4 year old lesbians | Lumion iso |