Quick Browse
Movies
TV shows
Music
Games
Applications
Anime
Other

Donate and Support

Friends
Torrents.me
Torrent Download
Free Movies
1337x
RARBG
Torrent Downloads

Breathless 2012 TS XviD-DiAMOND


    Seeders : 1      Leechers : 0
Hash :168D9E04758BD9A5B6DEF691FFD3722EB70B24C3
Added :1 Year+ by L0LPLZVerified torrent uploader in Movies
Size :701.34 MB
Stream :Watch Full Movies Online @ Movie4u
Share :


Breathless 2012 TS XviD-DiAMOND
Anonymous and Direct Download 300GB+ free







Warning! Do not Download Torrents Without a VPN!
Your IP Address is .   And Location is
Your Internet Provider and Government can track your torrent Activity!  Hide your IP ADDRESS with a VPN!
We Strongly Recommend Using SpyOFF Torrent VPN to Anonymize your Torrenting. It's FREE For 15 Days!

Note :

Please Update (Trackers Info) Before Downloading Torrents to See Updated Seeders And Leechers for Batter Download Speed.

Trackers List

Tracker NameLast CheckStatusSeedersLeechers




Torrent File Content (5 files)


Breathless 2012 TS XviD-DiAMOND
     dmd-breathless.avi -
701.34 MB

     dmd-breathless.nfo -
2.26 KB

     README.txt -
1.78 KB

    Breathless.2012.TS.XviD-DiAMOND
          Torrent downloaded from Extratorrent.com.txt -
40 bytes

          Torrent downloaded from h33t.com.txt -
32 bytes



Description



Breathless.2012.TS.XviD-DiAMOND

http://www.imdb.com/title/tt2005164/

Director: Jesse Baget
Writers: Jesse Baget, Stefania Moscato
Stars: Val Kilmer, Ray Liotta and Gina Gershon
Genre: Thriller

Video
ID : 0
Format : MPEG-4 Visual
Format profile : Advanced [email protected]
Format settings, BVOP : 2
Format settings, QPel : No
Format settings, GMC : No warppoints
Format settings, Matrix : Default (H.263)
Muxing mode : Packed bitstream
Codec ID : XVID
Codec ID/Hint : XviD
Duration : 1h 47min
Bit rate : 2 645 Kbps
Width : 720 pixels
Height : 384 pixels
Display aspect ratio : 1.875
Frame rate : 25.000 fps
Color space : YUV
Chroma subsampling : 4:2:0
Bit depth : 8 bits
Scan type : Progressive
Compression mode : Lossy
Bits/(Pixel*Frame) : 0.383
Stream size : 1.45 GiB (95%)
Writing library : XviD 64

Audio
ID : 1
Format : MPEG Audio
Format version : Version 1
Format profile : Layer 3
Mode : Joint stereo
Mode extension : MS Stereo
Codec ID : 55
Codec ID/Hint : MP3
Duration : 1h 47min
Bit rate mode : Constant
Bit rate : 128 Kbps
Channel(s) : 2 channels
Sampling rate : 44.1 KHz
Compression mode : Lossy
Stream size : 71.9 MiB (5%)
Alignment : Split accross interleaves
Interleave, duration : 40 ms (1.00 video frame)

NOTE

BE AWARE OF BOGUS SITES , FAKE FILES AND
STUPID SPAMMERS DOWNLOAD ALWAYS YOUR MAX DATA FROM OUR SITE
http://www.torentz.3xforum.ro/topic/4/MAX_TORRENTZ/

Recommended player for all our movies
http://www.videolan.org/vlc/

REMEMBER: GOD DEMANDS LOVE,SEEDS,PEERS AND A FAIR TORRENT RATIO

Copyright © WWW.TORENTZ.3XFORUM.RO




Related torrents

Torrent NameAddedSizeSeedLeechHealth
1 Year+ - in Movies1006.64 MB00
1 Year+ - in Movies731.04 MB00
Last Month - in Movies1.44 GB00
2 months ago - in Movies922.14 MB10
2 months ago - in Movies702.14 MB00

Comments (0 Comments)




Please login or create a FREE account to post comments

Latest Searches

| sp2 2600 | hammersmith 1975 | Mofos Keisha Grey | sweet lovin sigala feat bryn christopher | Abraxas Live In Memoriam 2000 MPC | ted latin | swift mega | The Secret Fury 1950 | Fetish Tokyo Fisting | MetArtFilms 17 02 18 Kiara Lord And Rebel Lynn Deep Massage 1080p MP4 KTR |