Quick Browse
Movies
TV shows
Music
Games
Applications
Anime
Other
Facebook
Advertising

Friends
Torrent Download
Movie4u
1337x.to
Torrent Downloads




Breathless 2012 TS XviD-DiAMOND


    Seeders : 1      Leechers : 0
Hash :168D9E04758BD9A5B6DEF691FFD3722EB70B24C3
Added :1 Year+ by L0LPLZVerified torrent uploader in Movies
Size :701.34 MB
Stream :WATCH ONLINE @ Movie4u


Breathless 2012 TS XviD-DiAMOND
Free and Fast Download with Usenet 300GB+ free







Trackers List

Tracker NameLast CheckStatusSeedersLeechers




Torrent File Content (5 files)


Breathless 2012 TS XviD-DiAMOND
     dmd-breathless.avi -
701.34 MB

     dmd-breathless.nfo -
2.26 KB

     README.txt -
1.78 KB

    Breathless.2012.TS.XviD-DiAMOND
          Torrent downloaded from Extratorrent.com.txt -
40 bytes

          Torrent downloaded from h33t.com.txt -
32 bytes



Description



Breathless.2012.TS.XviD-DiAMOND

http://www.imdb.com/title/tt2005164/

Director: Jesse Baget
Writers: Jesse Baget, Stefania Moscato
Stars: Val Kilmer, Ray Liotta and Gina Gershon
Genre: Thriller

Video
ID : 0
Format : MPEG-4 Visual
Format profile : Advanced [email protected]
Format settings, BVOP : 2
Format settings, QPel : No
Format settings, GMC : No warppoints
Format settings, Matrix : Default (H.263)
Muxing mode : Packed bitstream
Codec ID : XVID
Codec ID/Hint : XviD
Duration : 1h 47min
Bit rate : 2 645 Kbps
Width : 720 pixels
Height : 384 pixels
Display aspect ratio : 1.875
Frame rate : 25.000 fps
Color space : YUV
Chroma subsampling : 4:2:0
Bit depth : 8 bits
Scan type : Progressive
Compression mode : Lossy
Bits/(Pixel*Frame) : 0.383
Stream size : 1.45 GiB (95%)
Writing library : XviD 64

Audio
ID : 1
Format : MPEG Audio
Format version : Version 1
Format profile : Layer 3
Mode : Joint stereo
Mode extension : MS Stereo
Codec ID : 55
Codec ID/Hint : MP3
Duration : 1h 47min
Bit rate mode : Constant
Bit rate : 128 Kbps
Channel(s) : 2 channels
Sampling rate : 44.1 KHz
Compression mode : Lossy
Stream size : 71.9 MiB (5%)
Alignment : Split accross interleaves
Interleave, duration : 40 ms (1.00 video frame)

NOTE

BE AWARE OF BOGUS SITES , FAKE FILES AND
STUPID SPAMMERS DOWNLOAD ALWAYS YOUR MAX DATA FROM OUR SITE
http://www.torentz.3xforum.ro/topic/4/MAX_TORRENTZ/

Recommended player for all our movies
http://www.videolan.org/vlc/

REMEMBER: GOD DEMANDS LOVE,SEEDS,PEERS AND A FAIR TORRENT RATIO

Copyright © WWW.TORENTZ.3XFORUM.RO




Related torrents

Torrent NameAddedSizeSeedLeechHealth
1 Year+ - in Movies1006.64 MB00
6 months ago - in Movies1.11 GB00
6 months ago - in Movies6.55 GB00
6 months ago - in Movies1.74 GB00
6 months ago - in Movies1.12 GB00

Comments (0 Comments)




Please login or create a FREE account to post comments

Latest Searches

| Lana starr | japanese fucked hard | Sharon Saint Im Waiting For Your Cum | diamond pearl battle | vikings season 5 soundtrack | Brazzers my wife sister | abella karlee keisha blacked | sydney cole sinslife | were u | boom shake the room dj jazzy jeff the fresh prince |