Quick Browse
Movies
TV shows
Music
Games
Applications
Anime
Other
Facebook
Friends
Torrent Download
Free Movies
1337x.to
Torrent Downloads

Verified torrent Brooklyns Finest (2009) DVDRip XviD-MAXSPEED


    Seeders : 0      Leechers : 0
Hash :638AD883D95C6342D93DA2822C183CC0F0416EA0
Added :1 Year+ by piratepediaVerified torrent uploader in Movies
Size :1.37 GB
Stream :Watch Full Movies Online @ Movie4u
Share :


Brooklyns Finest (2009) DVDRip XviD-MAXSPEED
Anonymous and Direct Download 300GB+ free







Warning! Do not Download Torrents Without a VPN!
Your IP Address is .   And Location is
Your Internet Provider and Government can track your torrent Activity!  Hide your IP ADDRESS with a VPN!
We Strongly Recommend Using SpyOFF Torrent VPN to Anonymize your Torrenting. It's FREE For 15 Days!

Note :

Please Update (Trackers Info) Before Downloading Torrents to See Updated Seeders And Leechers for Batter Download Speed.

Trackers List

Tracker NameLast CheckStatusSeedersLeechers




Torrent File Content (7 files)


Brooklyns Finest (2009) DVDRip XviD-MAXSPEED
     Brooklyns Finest (2009) DVDRip XviD-MAXSPEED www.torentz.3xforum.ro.avi -
1.37 GB

     screencaps.jpg -
211.04 KB

     Brooklyns Finest (2009) DVDRip XviD-MAXSPEED.nfo -
2.49 KB

     Torrent downloaded from Demonoid.com.txt -
47 bytes

     Torrent verified and recommended by vertor.com.txt -
46 bytes

     Torrent downloaded from Rarbg.com.txt -
33 bytes

     tracked_by_h33t_com.txt -
23 bytes



Description



http://i45.tinypic.com/208z76c.jpg


Screens:

http://i48.tinypic.com/2u74vhd.jpg

http://i50.tinypic.com/vox6x2.jpg

http://i50.tinypic.com/2m4ui49.jpg

http://i47.tinypic.com/vy5mq9.jpg

http://i49.tinypic.com/1zaij5.jpg


Alternative:

[code]http://www.postimg.com/image/17000/16797.jpg
http://www.postimg.com/image/17000/16798.jpg
http://www.postimg.com/image/17000/16799.jpg
http://www.postimg.com/image/17000/16800.jpg
http://www.postimg.com/image/17000/16801.jpg[/code]

[code]Format : AVI
Format/Info : Audio Video Interleave
File size : 1.37 GiB
Duration : 2h 12mn
Overall bit rate : 1 473 Kbps
Writing application : VirtualDubMod 1.5.10.2 (build 2542/release)
Writing library : VirtualDubMod build 2542/release
Original source form : MAX TORRENTZ
Copyright : SIGISMUNT

Video
ID : 0
Format : MPEG-4 Visual
Format profile : [email protected]
Format settings, BVOP : Yes
Format settings, QPel : No
Format settings, GMC : No warppoints
Format settings, Matrix : Default (MPEG)
Muxing mode : Packed bitstream
Codec ID : XVID
Codec ID/Hint : XviD
Duration : 2h 12mn
Bit rate : 1 016 Kbps
Width : 640 pixels
Height : 272 pixels
Display aspect ratio : 2.35:1
Frame rate : 23.976 fps
Resolution : 24 bits
Colorimetry : 4:2:0
Scan type : Progressive
Bits/(Pixel*Frame) : 0.243
Stream size : 966 MiB (69%)
Writing library : XviD 1.2.1 (UTC 2008-12-04)

Audio
ID : 1
Format : AC-3
Format/Info : Audio Coding 3
Codec ID : 2000
Duration : 2h 12mn
Bit rate mode : Constant
Bit rate : 448 Kbps
Channel(s) : 6 channels
Channel positions : Front: L C R, Surround: L R, LFE
Sampling rate : 48.0 KHz
Stream size : 425 MiB (30%)
Alignment : Split accross interleaves
Interleave, duration : 42 ms (1.00 video frame)
Interleave, preload duration : 500 ms

How To Get Your Maxspeed (uTorrent)

Torrent Client - Preferences - Bandwidth - Number of connections - Set aprox. 500 for each
Torrent Client - Preferences - BiTorrent - Protocol Encryption - Forced
Bandwidth Allocation - High (Set download/upload limit - Unlimited)
Stop Other Active Torrents - Start downloading and wait for connections
Enjoy and Seed for at least 1:1 ratio. Don't forget to say thanks/leave reviews.
Also please spread the link where you found this torrent to your friends.
Recommended player for all our movies VLC PLAYER.[/code]

Related torrents

Torrent NameAddedSizeSeedLeechHealth
8 months ago - in Movies2.66 GB00
10 months ago - in Movies2.19 GB00
1 Year+ - in Other2.53 GB00
1 Year+ - in Other1.61 GB00
1 Year+ - in Movies1.58 GB00

Comments (1 comment)




duggie
» Downloaded this torrent Downloaded this torrent » Voted Good Voted Good for this torrent for this torrent

Added 1 Year+
Nice copy! Tnx for the ul MAXSPEED.
Please login or create a FREE account to post comments

Latest Searches

| Bessie Smith Bessie | WoodmanCastingX Liza Shay Brooklyn Updated Casting X 87 10 24 16 | Cocksland | Sia To Be Human feat Labrinth | IKnowThatGirl Aaliyah Hadid Naughty | left lane cruiser claw | the family i had | funky glitch | d3fil3r arrow | Harlow Harrison Dirty Wives Club |