Quick Browse
Movies
TV shows
Music
Games
Applications
Anime
Other
Facebook
Advertising

Friends
Torrent Download
Movie4u
1337x.to
Torrent Downloads




Verified torrent Bun B ft Drake - Put It Down [KingPinVideos]


    Seeders : 63      Leechers : 6
Hash :09589EE66329137D9263B7659A208E1755FF14B3
Added :1 Year+ by KingPinVerified torrent uploader in Music - Music Videos
Size :97.7 MB
Stream :WATCH ONLINE @ Movie4u


Bun B ft Drake - Put It Down [KingPinVideos]
Free and Fast Download with Usenet 300GB+ free







Trackers List

Tracker NameLast CheckStatusSeedersLeechers




Torrent File Content (5 files)


Bun B ft Drake - Put It Down [KingPinVideos]
     Bun B ft Drake - Put It Down [KingPinVideos].mpg -
97.7 MB

     Bun B ft Drake - Put It Down [KingPinVideos].nfo -
1.8 KB

     Bun B ft Drake - Put It Down [KingPinVideos].txt -
1.63 KB

     Torrent downloaded from Demonoid.com.txt -
47 bytes

     Torrent Downloaded from Limetorrents.com.txt -
46 bytes



Description



http://img241.imageshack.us/img241/5809/bunbputitdown.png


http://img152.imageshack.us/img152/4830/bunbputitdown2.png


[code]General
Complete name : Bun B ft Drake - Put It Down [KingPinVideos].mpg
Format : MPEG-PS
File size : 97.7 MiB
Duration : 4mn 46s
Overall bit rate : 2 856 Kbps
Writing library : encoded by TMPGEnc 4.0 XPress Version. 4.7.4.299

Video
ID : 224 (0xE0)
Format : MPEG Video
Format version : Version 1
Format settings, BVOP : Yes
Format settings, Matrix : Default
Duration : 4mn 46s
Bit rate mode : Constant
Bit rate : 2 615 Kbps
Nominal bit rate : 2 700 Kbps
Width : 384 pixels
Height : 208 pixels
Display aspect ratio : 16:9
Frame rate : 29.970 fps
Resolution : 8 bits
Scan type : Progressive
Bits/(Pixel*Frame) : 1.092
Stream size : 89.4 MiB (92%)
Writing library : TMPGEnc XPress 4.7.4.299

Audio
ID : 192 (0xC0)
Format : MPEG Audio
Format version : Version 1
Format profile : Layer 2
Duration : 4mn 46s
Bit rate mode : Constant
Bit rate : 128 Kbps
Channel(s) : 2 channels
Sampling rate : 48.0 KHz
Stream size : 4.38 MiB (4%)[/code]

Related torrents

Torrent NameAddedSizeSeedLeechHealth
1 Year+ - in Other170.73 MB10
1 Year+ - in Music3.9 MB02
1 Year+ - in Music5.8 MB00
1 Year+ - in Music10.95 MB00
1 Year+ - in Music26.6 MB24

Comments (0 Comments)




Please login or create a FREE account to post comments

Latest Searches

| arm hammer gates | G V R 2016 dvdrip | lina doctor | big bang theory 4 sezon | 720p agents of s h i e l d s04e06 | got money cover | elementary s02e16 ettv | men 2017 | Windows Seven Black 26 Ultimate by KIRK TEAM OS HKRG | team 089 vagina in iki sex suzumiya suzu to climax many times arched back |