Quick Browse
Movies
TV shows
Music
Games
Applications
Anime
Other

Advertising

Friends
Torrents.me
Torrent Download
Free Movies
1337x
RARBG
Torrent Downloads

Verified torrent Bun B ft T-Pain - Trillionaire [KingPinVideos]


    Seeders : 2      Leechers : 13

Hash :CD5FB8A979DEA93CB5747895F4DF9F9D915B89F4
Added :1 Year+ by KingPinVerified torrent uploader in Music - Music Videos
Size :89.6 MB
Stream :Watch Online Full Movie @ Movie4u
Share :


Bun B ft T-Pain - Trillionaire [KingPinVideos]
Download Direct And Anonymously







Warning! Do not Download Torrents Without a VPN!
Your IP Address is .   And Location is
Your Internet Provider and Government can track your torrent Activity!  Hide your IP ADDRESS with a VPN!
We Strongly Recommend Using SpyOFF Torrent VPN to Anonymize your Torrenting. It's FREE for 15 Days!

Note :

Please Update (Trackers Info) Before Downloading Torrents to See Updated Seeders And Leechers for Batter Download Speed.

Trackers List

Tracker NameLast CheckStatusSeedersLeechers




Torrent File Content (4 files)


Bun B ft T-Pain - Trillionaire [KingPinVideos]
     Bun B ft T-Pain - Trillionaire [KingPinVideos].mpg -
89.6 MB

     Bun B ft T-Pain - Trillionaire [KingPinVideos].nfo -
2.04 KB

     Bun B ft T-Pain - Trillionaire [KingPinVideos].txt -
1.64 KB

     Torrent downloaded from Demonoid.com.txt -
47 bytes



Description



http://a.imageshack.us/img121/6778/bunbtrillion.png


http://a.imageshack.us/img33/8500/bunbtrillion1.png


[code]General
Complete name : Bun B ft T-Pain - Trillionaire [KingPinVideos].mpg
Format : MPEG-PS
File size : 89.6 MiB
Duration : 4mn 23s
Overall bit rate : 2 856 Kbps
Writing library : encoded by TMPGEnc 4.0 XPress Version. 4.7.4.299

Video
ID : 224 (0xE0)
Format : MPEG Video
Format version : Version 1
Format settings, BVOP : Yes
Format settings, Matrix : Default
Duration : 4mn 23s
Bit rate mode : Constant
Bit rate : 2 615 Kbps
Nominal bit rate : 2 700 Kbps
Width : 384 pixels
Height : 208 pixels
Display aspect ratio : 16:9
Frame rate : 29.970 fps
Resolution : 8 bits
Scan type : Progressive
Bits/(Pixel*Frame) : 1.092
Stream size : 82.0 MiB (92%)
Writing library : TMPGEnc XPress 4.7.4.299

Audio
ID : 192 (0xC0)
Format : MPEG Audio
Format version : Version 1
Format profile : Layer 2
Duration : 4mn 23s
Bit rate mode : Constant
Bit rate : 128 Kbps
Channel(s) : 2 channels
Sampling rate : 48.0 KHz
Stream size : 4.02 MiB (4%)[/code]

Related torrents

Torrent NameAddedSizeSeedLeechHealth
4 months ago - in Other2.9 MB00
1 Year+ - in Music221.57 MB00
Verified torrent
1 Year+ - in Music97.7 MB636
Verified torrent
1 Year+ - in Music75.25 MB10
2 months ago - in Other5.89 MB00

Note :

Feel free to post any comments about this torrent, including links to Subtitle, samples, screenshots, or any other relevant information. Please Dont Download anything from Comments, And Dont Post Links to Streaming Sites like Fmovies, Xmovies8, 123Movies, GoMovies, CMovieshd, Solarmovie, Watchfree, Putlockers, GoStream, m4ufree etc.

Comments (0 Comments)




Please login or create a FREE account to post comments

Latest Searches

| ray cyrus flac | BrazzersExxtra Jessa Rhodes Follow Me | VR Bangers Dillion Harper | Grimm 2011 Season 1 | Aposta Maxima 2013 Dublado | skinny black dp | A1 Website Download 8 2 0 | theravada pali | cherry bomb 4 | ita The Imposter |