Quick Browse
Movies
TV shows
Music
Games
Applications
Anime
Other
Facebook
Advertising

Friends
Torrent Download
Movie4u
1337x.to
Torrent Downloads




Verified torrent Burning Bright (2010) [XviD - English Mp3 - Sub Ita] MIRCrew [TNT Village]


    Seeders : 1      Leechers : 2

Trackers List

Tracker NameLast CheckStatusSeedersLeechers




Torrent File Content (1 file)


     Burning Bright (2010).avi -
558.37 MB



Description



Burning Bright (2010) [XviD - English Mp3 - Sub Ita] MIRCrew [TNT Village]


[color=red]
http://img24.imageshack.us/img24/4012/mircrewrel02.gif


*********************************************

[URL=http://www.imdb.com/title/tt1244658/]
http://img197.imageshack.us/img197/1332/imdblogo.gif
[/URL]

Burning Bright (2010)

http://i752.photobucket.com/albums/xx170/robbyrs/Burning-Bright-2010-Wide-Screen-Front-Cover-46660.jpg


http://s19.postimage.org/bgh0za7kj/banner_scheda.gif


[SIZE=5]
Directed by Carlos Brooks
Produced by Wayne Morris
Cami Winikoff
Written by David Higgins
Christine Coyle Johnson
Julie Prendiville Roux
Music by Zack Ryan
Cinematography Michael McDonough
Editing by Miklos Wright
Studio Lionsgate
Running time 86 min.
Country United States
Language English

http://i752.photobucket.com/albums/xx170/robbyrs/vlcsnap-2012-12-24-12h13m10s163.jpg


http://s19.postimage.org/fbp0flg3z/banner_cast.gif


Briana Evigan
Garret Dillahunt
Meat Loaf
Charlie Tahan

http://i752.photobucket.com/albums/xx170/robbyrs/vlcsnap-2012-12-24-12h13m02s87.jpg



http://s19.postimage.org/i9hdvjydv/banner_trama.gif


Protagonisti della storia la giovane Kelly e il suo fratellino; i due si ritrovano chiusi nella propria casa, con porte e finestre sbarrate, mentre fuori imperversa un terribile uragano.

Dopo un po’, però, un altro orrore inizia a percuotere le loro menti: pare infatti che un’enorme e affamata tigre si aggiri all’interno dell’abitazione….....

Storyline

In Montgomery County, Kelly Taylor is ready to go to college and takes her autistic brother, Tom, to a specialized institution. However, the bank informs her that she does not have

sufficient funds in her account to honor her check. Her stepfather, Johnny Gaveneau, withdrew the money from her account the day before. When Kelly arrives home, Johnny reveals that he used

the money to buy a tiger for his 'safari show' project. In addition he has the house reinforced, in order to protect it from hurricanes, so all the windows and external doors are covered

with wood. When Kelly awakes, she finds that the starving tiger is inside the house and Tom and she are trapped with the ravenous animal.

http://i752.photobucket.com/albums/xx170/robbyrs/vlcsnap-2012-12-24-12h10m25s60.jpg


http://i752.photobucket.com/albums/xx170/robbyrs/vlcsnap-2012-12-24-12h07m36s158.jpg


http://i.imgur.com/cWb6Z.gif



http://s19.postimage.org/f07k2tzo3/banner_dati_file.gif


General
Complete name : Burning Bright (2010).avi
Format : AVI
Format/Info : Audio Video Interleave
File size : 558 MiB
Duration : 1h 25mn
Overall bit rate : 912 Kbps
Writing library : MPlayer

Video
ID : 0
Format : MPEG-4 Visual
Format profile : Advanced [email protected]
Format settings, BVOP : Yes
Format settings, QPel : No
Format settings, GMC : No warppoints
Format settings, Matrix : Default (H.263)
Codec ID : XVID
Codec ID/Hint : XviD
Duration : 1h 25mn
Bit rate : 772 Kbps
Width : 624 pixels
Height : 352 pixels
Display aspect ratio : 16:9
Frame rate : 23.976 fps
Color space : YUV
Chroma subsampling : 4:2:0
Bit depth : 8 bits
Scan type : Progressive
Bits/(Pixel*Frame) : 0.147
Stream size : 473 MiB (85%)
Writing library : XviD 63

Audio
ID : 1
Format : MPEG Audio
Format version : Version 1
Format profile : Layer 3
Mode : Joint stereo
Mode extension : MS Stereo
Codec ID : 55
Codec ID/Hint : MP3
Duration : 1h 25mn
Bit rate mode : Constant
Bit rate : 128 Kbps
Channel(s) : 2 channels
Sampling rate : 44.1 KHz
Video delay : 42ms
Stream size : 78.4 MiB (14%)
Alignment : Aligned on interleaves
Interleave, duration : 26 ms (0.63 video frame)
Interleave, preload duration : 809 ms



[/color]

Related torrents

Torrent NameAddedSizeSeedLeechHealth
Verified torrent
1 Year+ - in Movies700.03 MB2610
Verified torrent
1 Year+ - in Movies1.46 GB121
Verified torrent
1 Year+ - in Movies699.94 MB130
Verified torrent
1 Year+ - in Movies1.09 GB50
Verified torrent
1 Year+ - in Movies863.47 MB146

Comments (0 Comments)




Please login or create a FREE account to post comments

Latest Searches

| no controle eyshila | break in sex | Teen Goes Anal X treme Taking It From Ass To Mouth | House on Street | 2016 Greater | webuser UK 2016 | Goes X treme Taking It From Ass To Mouth | Not The Bradys Pussy Power | Latest Telugu movies 2016 | transcendence 2014 1080p dd5 1 eng nl subs webdl nlu002 |