Quick Browse
Movies
TV shows
Music
Games
Applications
Anime
Other
Facebook
Advertising

Friends
Torrent Download
Movie4u
1337x.to
Torrent Downloads




Verified torrent C Era Una Volta In Messico 2003 iTALiAN BDRip XviD-TRL-[IDN_CREW]


    Seeders : 2      Leechers : 45

Trackers List

Tracker NameLast CheckStatusSeedersLeechers




Torrent File Content (3 files)


C.Era.Una.Volta.In.Messico.2003.iTALiAN.BDRip.XviD-TRL-[IDN_CREW]
     C.Era.Una.Volta.In.Messico.2003.iTALiAN.BDRip.XviD-TRL.CD1.avi -
699.84 MB

     C.Era.Una.Volta.In.Messico.2003.iTALiAN.BDRip.XviD-TRL.CD2.avi -
700.24 MB

     IDN_CREW Leggimi.txt -
294 bytes



Description



http://img821.imageshack.us/img821/1025/ceraunavoltainmessico.png

[color=blue]C’era una volta in Messico[/color]


http://img514.imageshack.us/img514/1502/inforelease.png



[color=blue]Titolo Italiano:[/color] C’era una volta in Messico
[color=blue]Anno: [/color]2003
[color=blue]Nazionalità: [/color] Messico - USA
[color=blue]Genere:[/color] Western
[color=blue]Lingua:[/color] Italiano
[color=blue]Durata:[/color] 97 min.
[color=blue]Cast:[/color] Antonio Banderas, Salma Hayek, Johnny Depp, Willem Dafoe, Mickey Rourke
[color=blue]Regia:[/color] Robert Rodriguez
[color=blue]Produzione: Elizabeth Avellan, Carlos Gallardo, Robert Rodriguez
[color=blue]Distribuzione:Buena Vista
Fonti:[/color][color=white] http://www.mymovies.it/dizionario/recensione.asp?id=34658
http://www.cinemovie.info/CeraunavoltainMessico_scheda.htm
[/color]


http://img153.imageshack.us/img153/7608/tramao.png



[color=beige] Messico. El Mariachi(Antonio Banderas), indimenticato giustiziere dalla chitarra a tracolla rimasto per anni celato da un'indecifrabile alone mitico tra vita e morte, viene rintracciato e arruolato dall'ambizioso agente della CIA Sands (Johnny Depp) per eliminare le truppe golpiste del generale Marquez(Gerardo Vigil), al soldo di Armando Barillo (Willem Dafoe), potente e spietato narcotrafficante che gode del favore della popolazione messicana, abbandonata tra stenti e miserie, omaggiate dallo stesso Barillo di terre e viveri. L'ambizioso Sands, intento a guadagnare una bella somma dall'intrigo politico-terroristico orchestrato in complicità con l'agente speciale Ajedrez (Eva Mendes), per sfruttare l'aiuto di El Mariachi preme sul mai sopito desiderio di vendetta dell'eroe-pistolero nei confronti diMarquez, acerrimo nemico di lunga data e assassino dell'amata moglie Carolina (Salma Hayek) e della loro bambina... [/color]


http://img190.imageshack.us/img190/7663/recension.png


[color=beige] C'era una volta in Messico (Once Upon a Time in Mexico) è un film del 2003 diretto da Robert Rodriguez.
Terzo capitolo della Trilogia del Mariachi, iniziata con El Mariachi, suonatore di chitarra e proseguita con Desperado.
Il titolo è stato suggerito al regista da Quentin Tarantino, grande amico e compagno di studi al Sundance Institute di Robert Rodriguez, come omaggio al maestro dei western Sergio Leone e ai suoi capolavori C'era una volta il West e C'era una volta in America.
Probabilmente "C'era una volta in Messico" rappresenta l'episodio migliore della saga del Mariachi, benchè ne sia il terzo. La trama di questo film infatti è sicuramente più profonda e solida di quella dei due film precedenti e non rischia di venire soffocata dall'azione. Ma il maggior pregio di questo film sta senza dubbio nell'ottimo cast. Al sempre bravo Antonio Banderas, si affianca qui un inedito Johnny Depp, mai così cattivo. Con ruoli di minore importanza, ma sempre bravi, vi sono poi Mickey Rourke, Willem Dafoe (nei panni del cattivo, come sempre negli ultimi anni) e Eva Mendez. Il risultato è così un film veloce e coinvolgente, con un buon ritmo e tanta azione che soddisferà sicuramente i fan del genere. Molto belle anche le ambientazioni, come nei film precedenti. Non mancano poi eccessi di violenza e situazioni assurde, ma quando c'è Rodriguez alla regia queste cose sono all'ordine del giorno. E comunque non raggiungono quei limiti estremi che si sono visti in altri suoi film. Per gli amanti degli action movie questo è comunque sicuramente un film da vedere, anche se non avete visto i due precedenti episodi.
[/color]

http://img529.imageshack.us/img529/7286/datifile.png


http://torrent-stats.info/8fdf/ca09a880.png


CD1
[color=yellow] General
Complete name : C.Era.Una.Volta.In.Messico.2003.iTALiAN.BDRip.XviD-TRL.CD1.avi
Format : AVI
Format/Info : Audio Video Interleave
File size : 700 MiB
Duration : 54mn 41s
Overall bit rate : 1 789 Kbps
Writing application : VirtualDubMod 1.5.10.2 (build 2540/release)
Writing library : VirtualDubMod build 2540/release

Video
Format : MPEG-4 Visual
Format profile : Streaming [email protected]
Format settings, BVOP : Yes
Format settings, QPel : No
Format settings, GMC : No warppoints
Format settings, Matrix : Default
Codec ID : XVID
Codec ID/Hint : XviD
Duration : 54mn 41s
Bit rate : 1 139 Kbps
Width : 624 pixels
Height : 352 pixels
Display aspect ratio : 16/9
Frame rate : 23.976 fps
Resolution : 24 bits
Colorimetry : 4:2:0
Scan type : Progressive
Bits/(Pixel*Frame) : 0.216
Stream size : 446 MiB (64%)
Writing library : XviD 50

Audio
Format : AC-3
Format/Info : Audio Coding 3
Codec ID : 2000
Duration : 54mn 41s
Bit rate mode : Constant
Bit rate : 640 Kbps
Channel(s) : 6 channels
Channel positions : Front: L C R, Surround: L R, LFE
Sampling rate : 48.0 KHz
Stream size : 250 MiB (36%)
Alignment : Split accross interleaves
Interleave, duration : 42 ms (1.00 video frame)
Interleave, preload duration : 500 ms

[/color]


CD2
[color=yellow] General
Complete name : C.Era.Una.Volta.In.Messico.2003.iTALiAN.BDRip.XviD-TRL.CD2.avi
Format : AVI
Format/Info : Audio Video Interleave
File size : 700 MiB
Duration : 47mn 8s
Overall bit rate : 2 077 Kbps
Writing application : VirtualDubMod 1.5.10.2 (build 2540/release)
Writing library : VirtualDubMod build 2540/release

Video
Format : MPEG-4 Visual
Format profile : Streaming [email protected]
Format settings, BVOP : Yes
Format settings, QPel : No
Format settings, GMC : No warppoints
Format settings, Matrix : Default
Codec ID : XVID
Codec ID/Hint : XviD
Duration : 47mn 8s
Bit rate : 1 429 Kbps
Width : 624 pixels
Height : 352 pixels
Display aspect ratio : 16/9
Frame rate : 23.976 fps
Resolution : 24 bits
Colorimetry : 4:2:0
Scan type : Progressive
Bits/(Pixel*Frame) : 0.271
Stream size : 482 MiB (69%)
Writing library : XviD 50

Audio
Format : AC-3
Format/Info : Audio Coding 3
Codec ID : 2000
Duration : 47mn 0s
Bit rate mode : Constant
Bit rate : 640 Kbps
Channel(s) : 6 channels
Channel positions : Front: L C R, Surround: L R, LFE
Sampling rate : 48.0 KHz
Video delay : 4ms
Stream size : 215 MiB (31%)
Alignment : Split accross interleaves
Interleave, duration : 42 ms (1.00 video frame)
Interleave, preload duration : 500 ms
[/color]


http://img20.imageshack.us/img20/4974/screenshotsph.png


http://img196.imageshack.us/img196/9489/vlcsnap2011061816h59m21.png

http://img860.imageshack.us/img860/2696/vlcsnap2011061816h59m29.png

http://img844.imageshack.us/img844/4947/vlcsnap2011061816h59m37.png

http://img534.imageshack.us/img534/6576/vlcsnap2011061816h59m52.png

http://img857.imageshack.us/img857/3846/vlcsnap2011061817h00m16.png


http://img687.imageshack.us/img687/5791/nuuuuuuuuuuu.png


Related torrents

Torrent NameAddedSizeSeedLeechHealth
Verified torrent
1 Year+ - in Movies2.84 GB00
1 Year+ - in Movies2.5 GB00
1 Year+ - in Movies2.5 GB00
1 Year+ - in Movies7.25 GB412
1 Year+ - in Movies1.37 GB358

Comments (0 Comments)




Please login or create a FREE account to post comments

Latest Searches

| Adobe Audition CC 2017 portable | britpop indie karaoke | fh | 100 Essential Carols Hymns For Christmas | initial d spec | nadien en roy | roy en nadien | new sensations babysitter 4 | Eavesdropper the a 2004 | young m a new music |