Quick Browse
Movies
TV shows
Music
Games
Applications
Anime
Other
Facebook
Advertising

Friends
Torrent Download
Movie4u
1337x.to
Torrent Downloads




Verified torrent CELLULAR HINDI ORIGNAL DVDRIP~Striker~TDA


    Seeders : 0      Leechers : 4
Hash :920726A68B1AEF40848C9B67545B4A5D24893CCB
Added :1 Year+ by striker123Verified torrent uploader in Movies
Size :1.37 GB
Stream :WATCH ONLINE @ Movie4u


CELLULAR HINDI ORIGNAL DVDRIP~Striker~TDA
Free and Fast Download with Usenet 300GB+ free







Trackers List

Tracker NameLast CheckStatusSeedersLeechers




Torrent File Content (4 files)


CELLULAR HINDI ORIGNAL DVDRIP~Striker~TDA
     CELLULAR HINDI ORIGNAL DVDRIP~Striker~TDA.mkv -
1.36 GB

     TeamTDA.jpg -
681.47 KB

     More Movies.url -
112 bytes

     Tracked By DesiAdda.com.txt -
23 bytes



Description



http://www.imagefreeks.com/images/striker/cell.png


http://www.imagefreeks.com/images/striker/eamtdabanner.jpg


http://www.imagefreeks.com/images/striker/ileinfo.png


[CODE]
General

Format : Matroska
File size : 1.36 GiB
Duration : 1h 33mn
Overall bit rate : 2 078 Kbps
Encoded date : UTC 2009-11-07 16:32:42
Writing application : mkvmerge v2.9.0 ('Moanin'') built on May 22 2009 17:46:31
Writing library : libebml v0.7.7 + libmatroska v0.8.1

Video
ID : 1
Format : AVC
Format/Info : Advanced Video Codec
Format profile : [email protected]
Format settings, CABAC : Yes
Format settings, ReFrames : 3 frames
Muxing mode : Container [email protected]
Codec ID : V_MPEG4/ISO/AVC
Duration : 1h 33mn
Bit rate : 1 845 Kbps
Nominal bit rate : 1 886 Kbps
Width : 704 pixels
Height : 292 pixels
Display aspect ratio : 2.40:1
Frame rate : 23.976 fps
Resolution : 24 bits
Colorimetry : 4:2:0
Scan type : Progressive
Bits/(Pixel*Frame) : 0.374
Stream size : 1.21 GiB (89%)
Writing library : x264 core 67 r1169M ab85c9b
Encoding settings : cabac=1 / ref=3 / deblock=1:0:0 / analyse=0x3:0x133 / me=umh / subme=7 / psy_rd=1.0:0.0 / mixed_ref=1 / me_range=16 / chroma_me=1 / trellis=1 / 8x8dct=1 / cqm=0 / deadzone=21,11 / chroma_qp_offset=-2 / threads=3 / nr=0 / decimate=1 / mbaff=0 / bframes=3 / b_pyramid=0 / b_adapt=1 / b_bias=0 / direct=3 / wpredb=1 / keyint=250 / keyint_min=25 / scenecut=40 / rc=2pass / bitrate=1886 / ratetol=1.0 / qcomp=0.60 / qpmin=10 / qpmax=51 / qpstep=4 / cplxblur=20.0 / qblur=0.5 / vbv_maxrate=25000 / vbv_bufsize=25000 / ip_ratio=1.40 / pb_ratio=1.30 / aq=1:1.00

Audio
ID : 2
Format : AC-3
Format/Info : Audio Coding 3
Codec ID : A_AC3
Duration : 1h 33mn
Bit rate mode : Constant
Bit rate : 192 Kbps
Channel(s) : 2 channels
Channel positions : L R
Sampling rate : 48.0 KHz
Stream size : 129 MiB (9%)

[/CODE]

http://www.imagefreeks.com/images/striker/screens.png


http://www.imagefreeks.com/images/striker/ellularhindiorignaldvdripstrikertda.jpg


http://www.imagefreeks.com/images/striker/ownload.png

Related torrents

Torrent NameAddedSizeSeedLeechHealth
Verified torrent
1 Year+ - in Movies800.67 MB12
1 Year+ - in Movies1.28 GB526
1 Year+ - in Movies2.06 GB154
1 Year+ - in Movies300.37 MB10
1 Year+ - in Movies494.02 MB84

Comments (0 Comments)




Please login or create a FREE account to post comments

Latest Searches

| t i remember me | alex rider eagle strike | WowPorn Anjelica I Want It Bad | word runner | canning preserving | debutante 5 | lela porn | perks of being a wallflower 1080p extended | officium flac | The Hateful Eight 2015 720p BRRip x264 AAC ETRG mp4 |