Quick Browse
Movies
TV shows
Music
Games
Applications
Anime
Other
Facebook
Advertising

Friends
Torrent Download
Movie4u
1337x.to
Torrent Downloads




Verified torrent CHAL MERE BHAI 2000 DVDRIP XVID UNTOUCH AC3 Striker WBZ


    Seeders : 1      Leechers : 0

Trackers List

Tracker NameLast CheckStatusSeedersLeechers




Torrent File Content (12 files)


CHAL MERE BHAI 2000 DVDRIP XVID UNTOUCH AC3 Striker WBZ
     CHAL MERE BHAI 2000 DVDRIP XVID UNTOUCH AC3 Striker WBZ.avi -
1.46 GB

     Sample.avi -
23.16 MB

    Screens
          1.jpg -
37.07 KB

          10.jpg -
24.6 KB

          2.jpg -
38.92 KB

          3.jpg -
41.32 KB

          4.jpg -
35.92 KB

          5.jpg -
35.52 KB

          6.jpg -
30.1 KB

          7.jpg -
27.92 KB

          8.jpg -
32.58 KB

          9.jpg -
36.14 KB



Description



http://pklibrary.com/Movie/wp-content/uploads/2011/03/CHAL-MERE-BHAI_L.jpg


[code]General
Format : AVI
Format/Info : Audio Video Interleave
File size : 1.46 GiB
Duration : 2h 14mn
Overall bit rate : 1 548 Kbps

Video
ID : 0
Format : MPEG-4 Visual
Format profile : Advanced [email protected]
Format settings, BVOP : 2
Format settings, QPel : No
Format settings, GMC : No warppoints
Format settings, Matrix : Default (H.263)
Codec ID : XVID
Codec ID/Hint : XviD
Duration : 2h 14mn
Bit rate : 1 091 Kbps
Width : 640 pixels
Height : 272 pixels
Display aspect ratio : 2.35:1
Frame rate : 29.970 fps
Color space : YUV
Chroma subsampling : 4:2:0
Bit depth : 8 bits
Scan type : Progressive
Compression mode : Lossy
Bits/(Pixel*Frame) : 0.209
Stream size : 1.03 GiB (70%)
Writing library : XviD 1.2.1 (UTC 2008-12-04)

Audio
ID : 1
Format : AC-3
Format/Info : Audio Coding 3
Mode extension : CM (complete main)
Codec ID : 2000
Duration : 2h 14mn
Bit rate mode : Constant
Bit rate : 448 Kbps
Channel(s) : 6 channels
Channel positions : Front: L C R, Side: L R, LFE
Sampling rate : 48.0 KHz
Bit depth : 16 bits
Compression mode : Lossy
Stream size : 432 MiB (29%)
Alignment : Aligned on interleaves
Interleave, duration : 64 ms (1.92 video frames)
Interleave, preload duration : 7808 ms
Title : Striker[WBZ] [/code]

http://pic.phyrefile.com/s/sh/shahaz/2011/04/12/1_005.jpg

http://pic.phyrefile.com/s/sh/shahaz/2011/04/12/2_005.jpg

http://pic.phyrefile.com/s/sh/shahaz/2011/04/12/3_004.jpg

http://pic.phyrefile.com/s/sh/shahaz/2011/04/12/4_004.jpg

http://pic.phyrefile.com/s/sh/shahaz/2011/04/12/5_004.jpg

http://pic.phyrefile.com/s/sh/shahaz/2011/04/12/6_004.jpg

http://pic.phyrefile.com/s/sh/shahaz/2011/04/12/7_004.jpg

http://pic.phyrefile.com/s/sh/shahaz/2011/04/12/8_004.jpg

http://pic.phyrefile.com/s/sh/shahaz/2011/04/12/9_004.jpg

http://pic.phyrefile.com/s/sh/shahaz/2011/04/12/10_004.jpg


Related torrents

Torrent NameAddedSizeSeedLeechHealth
1 Year+ - in Movies1.45 GB115
10 months ago - in Other1.57 GB00
Verified torrent
1 Year+ - in Movies1.1 GB11
1 Year+ - in Movies643.92 MB00
Verified torrent
1 Year+ - in Movies1.23 GB10

Comments (0 Comments)




Please login or create a FREE account to post comments

Latest Searches

| BigTitsatWork 15 10 14 | j cole 28 | genius pure s01e07 | neil young o | sunya | magic the gathering mobi | hypnotized b I g | t i vs the I p | glass up | Limited addiction |