Quick Browse
Movies
TV shows
Music
Games
Applications
Anime
Other
Facebook
Friends
Torrent Download
Free Movies
1337x.to
Torrent Downloads

Verified torrent CHANDRA MUKHI 1993 DVDRIP XVID UNTOUCH AC3 Striker WBZ


    Seeders : 0      Leechers : 0
Hash :94CBBC201EBE360CF90E25D220B97D576D668148
Added :1 Year+ by striker123Verified torrent uploader in Movies
Size :1.47 GB
Stream :Watch Full Movies Online @ Movie4u
Share :


CHANDRA MUKHI 1993 DVDRIP XVID UNTOUCH AC3 Striker WBZ
Anonymous and Direct Download 300GB+ free







Warning! Do not Download Torrents Without a VPN!
Your IP Address is .   And Location is
Your Internet Provider and Government can track your torrent Activity!  Hide your IP ADDRESS with a VPN!
We Strongly Recommend Using SpyOFF Torrent VPN to Anonymize your Torrenting. It's FREE For 15 Days!

Note :

Please Update (Trackers Info) Before Downloading Torrents to See Updated Seeders And Leechers for Batter Download Speed.

Trackers List

Tracker NameLast CheckStatusSeedersLeechers




Torrent File Content (12 files)


CHANDRA MUKHI 1993 DVDRIP XVID UNTOUCH AC3 Striker WBZ
     CHANDRA MUKHI 1993 DVDRIP XVID UNTOUCH AC3 Striker WBZ.avi -
1.45 GB

     Sample.avi -
18.37 MB

    Screens
          1.jpg -
31.33 KB

          10.jpg -
34.88 KB

          2.jpg -
31.82 KB

          3.jpg -
35.04 KB

          4.jpg -
29.8 KB

          5.jpg -
34.75 KB

          6.jpg -
32.89 KB

          7.jpg -
33.31 KB

          8.jpg -
30.89 KB

          9.jpg -
38.13 KB



Description



http://www.up.egyup.com/images/6fpfs8vkllter51izke3.jpg


[code]eneral
Format : AVI
Format/Info : Audio Video Interleave
File size : 1.45 GiB
Duration : 2h 36mn
Overall bit rate : 1 329 Kbps

Video
ID : 0
Format : MPEG-4 Visual
Format profile : Advanced [email protected]
Format settings, BVOP : 2
Format settings, QPel : No
Format settings, GMC : No warppoints
Format settings, Matrix : Default (H.263)
Codec ID : XVID
Codec ID/Hint : XviD
Duration : 2h 36mn
Bit rate : 1 128 Kbps
Width : 640 pixels
Height : 336 pixels
Display aspect ratio : 1.905
Frame rate : 29.970 fps
Color space : YUV
Chroma subsampling : 4:2:0
Bit depth : 8 bits
Scan type : Progressive
Compression mode : Lossy
Bits/(Pixel*Frame) : 0.175
Stream size : 1.23 GiB (85%)
Writing library : XviD 1.2.1 (UTC 2008-12-04)

Audio
ID : 1
Format : AC-3
Format/Info : Audio Coding 3
Mode extension : CM (complete main)
Codec ID : 2000
Duration : 2h 36mn
Bit rate mode : Constant
Bit rate : 192 Kbps
Channel(s) : 2 channels
Channel positions : Front: L R
Sampling rate : 48.0 KHz
Bit depth : 16 bits
Compression mode : Lossy
Stream size : 215 MiB (14%)
Alignment : Aligned on interleaves
Interleave, duration : 64 ms (1.92 video frames)
Interleave, preload duration : 192 ms
Title : Striker[WBZ] [/code]

http://pic.phyrefile.com/s/sh/shahaz/2011/04/12/1_006.jpg

http://pic.phyrefile.com/s/sh/shahaz/2011/04/12/2_006.jpg

http://pic.phyrefile.com/s/sh/shahaz/2011/04/12/3_005.jpg

http://pic.phyrefile.com/s/sh/shahaz/2011/04/12/4_005.jpg

http://pic.phyrefile.com/s/sh/shahaz/2011/04/12/5_005.jpg

http://pic.phyrefile.com/s/sh/shahaz/2011/04/12/6_005.jpg

http://pic.phyrefile.com/s/sh/shahaz/2011/04/12/7_005.jpg

http://pic.phyrefile.com/s/sh/shahaz/2011/04/12/8_005.jpg

http://pic.phyrefile.com/s/sh/shahaz/2011/04/12/9_005.jpg

http://pic.phyrefile.com/s/sh/shahaz/2011/04/12/10_005.jpg


Related torrents

Torrent NameAddedSizeSeedLeechHealth
Verified torrent
1 Year+ - in Movies1.47 GB10
Verified torrent
1 Year+ - in Movies1.23 GB10
Verified torrent
1 Year+ - in Movies1.48 GB10
Verified torrent
1 Year+ - in Movies1.38 GB10
Verified torrent
1 Year+ - in Movies1.48 GB10

Comments (0 Comments)




Please login or create a FREE account to post comments

Latest Searches

| Journey f | Lil Scrappy Bred 2 Die Born 2 Live | final fantasy 1 full game | Thirst 1979 | McMillan Wife Season 3 | Marijuana Guidebook | mamapapa | Silicon Valley S04E04 mkvcage | Looking For An Echo avi | Space Odyssey discography |