Quick Browse
Movies
TV shows
Music
Games
Applications
Anime
Other
Facebook
Advertising

Friends
Torrent Download
Movie4u
1337x.to
Torrent Downloads




COMEDY CIRCUS [ KRISHNA & SUDHESH ] [ FUNKARA ]


    Seeders : 5      Leechers : 13
Hash :37DCE9A243494C241F12CFAC19F7BFD8D3B08AB7
Added :1 Year+ by funkara in TV shows
Size :581.53 MB
Stream :WATCH ONLINE @ Movie4u


COMEDY CIRCUS [ KRISHNA & SUDHESH ] [ FUNKARA ]
Free and Fast Download with Usenet 300GB+ free







Trackers List

Tracker NameLast CheckStatusSeedersLeechers




Torrent File Content (1 file)


     comedy circus edited by funkara.avi -
581.53 MB



Description



ONLY KRISHNA AND SUDESH( 8 EPISODE ) EDITED BY ME


Sudhesh and Krishna had been outstanding and they had been the backbone of show the

comedy circus is incomplete without krishna and sudesh. only these 2 make people

laugh.sudhesh, no doubt is a great comedian. no one in this world can beat him. and

krishna with him is like sone pe suhaaga. i just love to see them together………….you

guys rock. it doesnt matter whether you are to win this show or not but undoubtly u

won our hearts………………thank you for making us proud that we are living in such a

country where talanted people like you are there………….thaaaaaaanx alot.

sum screen shots.......

http://a.imageshack.us/img838/9494/vlcsnap2010080720h44m16.jpg


http://a.imageshack.us/img686/5428/vlcsnap2010080720h43m56.jpg


http://a.imageshack.us/img32/1759/vlcsnap2010080720h43m17.jpg


http://a.imageshack.us/img826/3849/new11.gif


Format : AVI
Format/Info : Audio Video Interleave
File size : 582 MiB
Duration : 1h 32mn
Overall bit rate : 881 Kbps
Language : Hindi

Video
ID : 0
Format : MPEG-4 Visual
Format profile : Advanced [email protected]
Format settings, BVOP : No
Format settings, QPel : No
Format settings, GMC : No warppoints
Format settings, Matrix : Default (H.263)
Codec ID : XVID
Codec ID/Hint : XviD
Duration : 1h 32mn
Bit rate : 777 Kbps
Width : 640 pixels
Height : 480 pixels
Display aspect ratio : 4:3
Frame rate : 25.000 fps
Color space : YUV
Chroma subsampling : 4:2:0
Bit depth : 8 bits
Scan type : Progressive
Bits/(Pixel*Frame) : 0.101
Stream size : 513 MiB (88%)
Writing library : XviD 1.1.2 (UTC 2006-11-01)

Audio
ID : 1
Format : MPEG Audio
Format version : Version 1
Format profile : Layer 3
Codec ID : 55
Codec ID/Hint : MP3
Duration : 1h 32mn
Bit rate mode : Constant
Bit rate : 96.0 Kbps
Channel(s) : 2 channels
Sampling rate : 44.1 KHz
Stream size : 63.4 MiB (11%)
Alignment : Split accross interleaves
Interleave, duration : 80 ms (2.00 video frames)





Related torrents

Torrent NameAddedSizeSeedLeechHealth
1 Year+ - in TV shows1.19 GB01
1 Year+ - in Movies11.97 GB00
1 Year+ - in TV shows289.41 MB00
1 Year+ - in TV shows1.19 GB00
1 Year+ - in TV shows1.66 GB12

Comments (0 Comments)




Please login or create a FREE account to post comments

Latest Searches

| chemistry crc | Kid Rock Sheryl Crow collide | 2002 Diesel | Mans Best Friend 1993 DVDRip XviD norwayen NoRar | Babaji Cosmic Cobra Breath Ipsalu Tantra | Nozomi Hoshino | Abbey Lee Brazil Brandi Love The Tramp | white zombie astro creep q | acid music studio 6 0 | Close further |