Quick Browse
Movies
TV shows
Music
Games
Applications
Anime
Other
Facebook
Advertising

Friends
Torrent Download
Movie4u
1337x.to
Torrent Downloads




Caetano, Gal, Gil & Bethania - Serie Documento[EacFlacCue](Tntvillage)


    Seeders : 14      Leechers : 8

Trackers List

Tracker NameLast CheckStatusSeedersLeechers




Torrent File Content (15 files)


C43t4n0, G4l, G1l 3 B3th4n14 - S3r13 D0cum3nt0
     01-Track 1.flac -
15.03 MB

     02-Track 2.flac -
16.13 MB

     03-Track 3.flac -
18.13 MB

     04-Track 4.flac -
14.98 MB

     05-Track 5.flac -
12.1 MB

     06-Track 6.flac -
10.06 MB

     07-Track 7.flac -
14.67 MB

     08-Track 8.flac -
14.72 MB

     09-Track 9.flac -
13.37 MB

     10-Track 10.flac -
14.56 MB

     11-Track 11.flac -
23.86 MB

     12-Track 12.flac -
14.67 MB

     C43t4n0, G4l, G1l 3 B3th4n14 - S3r13 D0cum3nt0.cue -
1.97 KB

     C43t4n0, G4l, G1l 3 B3th4n14 - S3r13 D0cum3nt0.log -
4.87 KB

     folder.JPG -
95.69 KB



Description



http://img200.imageshack.us/img200/9052/dsc00035qxl.jpg

http://img836.imageshack.us/img836/7138/dsc00041yk.jpg




Titolo: Caetano, Gal, Gil & Bethânia-Serie Documento

Artisti: Caetano, Gal, Gil & Bethânia

Genere: Internazionale

Sottogenere: Musica Popular Brasileira

Data di uscita: 04/1993

Anno di pubblicazione: 1990

Casa discografica: Sony-Bmg

Durata: 32:17

1 - Cavaleiro (2:48)

2 - Eu Vim Da Bahia (2:55)

3 - Roda (2:54)

4 - Pra Que Mentir (3:08)

5 - Samba Em Paz (2:04)

6 - Sol Negro (1:59)

7 - Procissao (2:29)

8 - Sim Foi Voce (2:40)

9 - Iemanja (2:11)

10 - Viramundo (2:21)

11 - Sorte (4:10)

12 - X Do Problema (2:25)

È stato da qui che tutto cominciò. Il punto di partenza della rivoluzione musicale baiana, la quale vide Caymmi, João Gilberto, Novos Baianos e gli altri della generazione afro reggae, afoxè, samba e lambada. Caetano Veloso, Gilberto Gil, Maria Bethânia e Gal Costa (che si presentava al pubblico con il nome di battesimo Maria da Graça) piantarono le regole di quell'epoca. Quello che si puó ascoltare in questa selezione di brani è sicuramente un disco pilota. Buon ascolto.

Exact Audio Copy V1.0 beta 1 from 15. November 2010

EAC extraction logfile from 20. June 2011, 16:19

Caetano, Gal, Gil & Bethânia / Série Documento

Used drive : HL-DT-STDVDRAM GSA-T40N Adapter: 0 ID: 0

Read mode : Secure
Utilize accurate stream : Yes
Defeat audio cache : No
Make use of C2 pointers : Yes

Read offset correction : 667
Overread into Lead-In and Lead-Out : No
Fill up missing offset samples with silence : Yes
Delete leading and trailing silent blocks : No
Null samples used in CRC calculations : No
Used interface : Native Win32 interface for Win NT & 2000

Used output format : User Defined Encoder
Selected bitrate : 768 kBit/s
Quality : High
Add ID3 tag : No
Command line compressor : c:\Users\leomarco\Contacts\Desktop\Exact Audio Copy\FLAC\FLAC.EXE
Additional command line options : -6 -V -T "ARTIST=%a" -T "TITLE=%t" -T "ALBUM=%g" -T "DATE=%y" -T "TRACKNUMBER=%n" -T "GENRE=%m" -T "COMMENT=%e" %j--picture="%i"%j %s -o %d


TOC of the extracted CD

Track | Start | Length | Start sector | End sector
---------------------------------------------------------
1 | 0:00.00 | 2:50.02 | 0 | 12751
2 | 2:50.02 | 2:56.73 | 12752 | 26024
3 | 5:47.00 | 2:56.25 | 26025 | 39249
4 | 8:43.25 | 3:09.60 | 39250 | 53484
5 | 11:53.10 | 2:06.45 | 53485 | 62979
6 | 13:59.55 | 2:00.67 | 62980 | 72046
7 | 16:00.47 | 2:31.53 | 72047 | 83424
8 | 18:32.25 | 2:42.57 | 83425 | 95631
9 | 21:15.07 | 2:13.30 | 95632 | 105636
10 | 23:28.37 | 2:24.73 | 105637 | 116509
11 | 25:53.35 | 4:14.50 | 116510 | 135609
12 | 30:08.10 | 2:29.35 | 135610 | 146819


Range status and errors

Selected range

Filename C:\Users\leomarco\Contacts\Desktop\Caetano, Gal, Gil & Bethânia - Série Documento.flac

Peak level 100.0 %
Extraction speed 0.9 X
Range quality 100.0 %
Test CRC D74C06B4
Copy CRC D74C06B4
Copy OK

No errors occurred

End of status report

==== Log checksum CD60B4EE782067E9622C2887E243C7BCA8C12EA0FE68AF9D02936700360200BC ====

Per i primi 10: 24 su 24:50/60 Kb/s

Related torrents

Torrent NameAddedSizeSeedLeechHealth
1 Comments
1 Good
1 Year+ - in Music77.11 MB00
Verified torrent
1 Year+ - in Music228.64 MB2616
Verified torrent
1 Year+ - in Music285.72 MB1017
Verified torrent
1 Year+ - in Music243.82 MB1715
1 Year+ - in Music223.83 MB86

Comments (0 Comments)




Please login or create a FREE account to post comments

Latest Searches

| christmas album nashville | ita eng 1080p bluray 2016 | a heat for all seasons kiss | arrival 2016 hdtv | WINRAR 5 21 X64 X86 KEY rar | colony s01e01 batv | John Legend | rb greatest | KarupsOW 15 05 07 Genny Red Solo 5 720p MP4 KTR | avi ita babbo bastardo 2 |