Quick Browse
Movies
TV shows
Music
Games
Applications
Anime
Other
Facebook
Advertising

Friends
Torrent Download
Movie4u
1337x.to
Torrent Downloads




Verified torrent Carnage 2011 R5 READNFO XviD-26K


    Seeders : 1      Leechers : 0
Hash :5CC074F30DE2DD1DD6237215867AD9263703B0DF
Added :1 Year+ by memory100Verified torrent uploader in Movies
Size :911.56 MB
Stream :WATCH ONLINE @ Movie4u


Carnage 2011 R5 READNFO XviD-26K
Free and Fast Download with Usenet 300GB+ free







Trackers List

Tracker NameLast CheckStatusSeedersLeechers




Torrent File Content (7 files)


Carnage 2011 R5 READNFO XviD-26K
     sample.avi -
19.84 MB

     sceneunderground.org.txt -
77 bytes

     att-networks.com.txt -
39 bytes

     Torrent downloaded from Demonoid.me.txt -
46 bytes

     Carnage 2011 R5 READNFO XviD-26K.nfo -
3.27 KB

     HDSceneRG.txt -
115 bytes

     Carnage 2011 R5 READNFO XviD-26K.avi -
891.71 MB



Description



http://img825.imageshack.us/img825/5091/canage.jpg

[code]
Carnage 2011 R5 READNFO XviD-26K

Imdb:
http://www.imdb.com/title/tt1692486/

Plot:
Two pairs of parents hold a cordial meeting after their sons are involved in a fight, though as their

time together progresses, increasingly childish behavior throws the evening into chaos.

Sources:
R5 DVD9 thnxs russains!
Evolution for audio

Notes:
readnfo because audio is cam :P very good cam audio as well!

needed a bit of cutting synced each part and is perfectly in sync :)

added a few filters to the audio and video to make it sound and look nice :)
enjoy

Greetz:
Xtreme Encode|FYA|ILLUMANTI|CM8|RX|VISION|HDSCENE|NIGHTMAREZ|xTriLL
To all the people who have helped me :P you know who you are

Anything to offer email us @: [email protected]

Video
ID : 0
Format : MPEG-4 Visual
Format profile : Advanced [email protected]
Format settings, BVOP : 2
Format settings, QPel : No
Format settings, GMC : No warppoints
Format settings, Matrix : Default (H.263)
Codec ID : XVID
Codec ID/Hint : XviD
Duration : 1h 16mn
Bit rate : 1 500 Kbps
Width : 640 pixels
Height : 272 pixels
Display aspect ratio : 2.35:1
Frame rate : 23.976 fps
Color space : YUV
Chroma subsampling : 4:2:0
Bit depth : 8 bits
Scan type : Progressive
Compression mode : Lossy
Bits/(Pixel*Frame) : 0.359
Stream size : 817 MiB (92%)
Writing library : XviD 63

Audio
ID : 1
Format : MPEG Audio
Format version : Version 1
Format profile : Layer 3
Codec ID : 50
Duration : 1h 16mn
Bit rate mode : Constant
Bit rate : 128 Kbps
Channel(s) : 2 channels
Sampling rate : 44.1 KHz
Compression mode : Lossy
Stream size : 79.7 MiB (8%)
Alignment : Aligned on interleaves
Interleave, duration : 60 ms (1.00 video frame)

[/code]
Screens:
http://img20.imageshack.us/img20/8412/vlcsnap2011122114h23m36.png

http://img853.imageshack.us/img853/6673/vlcsnap2011122114h23m41.png

http://img205.imageshack.us/img205/5456/vlcsnap2011122114h23m46.png

http://img210.imageshack.us/img210/6089/vlcsnap2011122114h23m53.png

http://img100.imageshack.us/img100/5746/vlcsnap2011122114h23m57.png


http://img851.imageshack.us/img851/5503/26ks.jpg

Thank you smallz for banner!

Related torrents

Torrent NameAddedSizeSeedLeechHealth
1 Year+ - in Movies711.79 MB011
1 Year+ - in Movies711.79 MB3763
1 Year+ - in Movies711.79 MB162
1 Year+ - in Movies711.79 MB2262
1 Year+ - in Movies624.12 MB00

Comments (0 Comments)




Please login or create a FREE account to post comments

Latest Searches

| traditional china | simon amstell do nothing live dvdrip xvid haggis | 21EroticAnal Kira Thorn Tea for Two | HamiltonJoe Frank Reynolds | levels remix mashup | visual composer extensions all in one v3 3 6 codecanyon | house of pain boom | r shift | Shameless US S07E10 1080p HDTV X264 DIMENSION | One Million BC 1966 |