Quick Browse
Movies
TV shows
Music
Games
Applications
Anime
Other
Facebook
Advertising

Friends
Torrent Download
Movie4u
1337x.to
Torrent Downloads




Verified torrent Cars 2 (2011) DVDRip XviD-MAXSPEED


    Seeders : 191      Leechers : 26
Hash :1DD19C47D86B1E9147DFE4FC30B45310AF903172
Added :1 Year+ by piratepediaVerified torrent uploader in Movies
Size :1.52 GB
Stream :WATCH ONLINE @ Movie4u


Cars 2 (2011) DVDRip XviD-MAXSPEED
Free and Fast Download with Usenet 300GB+ free







Trackers List

Tracker NameLast CheckStatusSeedersLeechers
udp://tracker.istole.it:80/announce1 Year+success19126
udp://tracker.openbittorrent.com:801 Year+success12719
udp://tracker.publicbt.com:80/announce1 Year+success11917
udp://tracker.publicbt.com:801 Year+success11917
http://inferno.demonoid.me:3405/announce1 Year+success7722
http://exodus.desync.com:6969/announce1 Year+success31




Torrent File Content (8 files)


Cars 2 (2011) DVDRip XviD-MAXSPEED
     Cars 2 (2011) DVDRip XviD-MAXSPEED www.3xforum.ro.avi -
1.51 GB

     sample.avi -
11.1 MB

     screencaps.jpeg -
176.65 KB

     Cars 2 (2011) DVDRip XviD-MAXSPEED.nfo -
2.59 KB

     Torrent downloaded from Demonoid.me.txt -
46 bytes

     Torrent downloaded from Extratorrent.com.txt -
40 bytes

     Torrent downloaded from Rarbg.com.txt -
33 bytes

     Torrent downloaded from h33t.com.txt -
32 bytes



Description



http://www.hotimg.com/direct/UK7chdq.jpg


Screens:

http://www.hotimg.com/direct/pvNGguk.jpg

http://www.hotimg.com/direct/jtZWMcs.jpg

http://www.hotimg.com/direct/vjAvgFd.jpg

http://www.hotimg.com/direct/JpcVRCV.jpg


Alternative:

[code]http://www.postimg.com/image/50000/photo-49192.jpg
http://www.postimg.com/image/50000/photo-49193.jpg
http://www.postimg.com/image/50000/photo-49194.jpg
http://www.postimg.com/image/50000/photo-49195.jpg[/code]

ScreenCaps:

http://www.postimg.com/50000/photo-49198.jpg


[code]Cars 2 (2011) DVDRip XviD-MAXSPEED
Format : AVI
Format/Info : Audio Video Interleave
Format profile : OpenDML
File size : 1.51 GiB
Duration : 1h 47mn
Overall bit rate : 2 020 Kbps
Writing application : VirtualDubMod 1.5.10.2 (build 2542/release)
Writing library : VirtualDubMod build 2542/release
Original source form : MAX TORRENTZ
Copyright : SIGISMUNT

Video
ID : 0
Format : MPEG-4 Visual
Format profile : [email protected]
Format settings, BVOP : Yes
Format settings, QPel : No
Format settings, GMC : No warppoints
Format settings, Matrix : Custom
Codec ID : XVID
Codec ID/Hint : XviD
Duration : 1h 47mn
Bit rate : 1 631 Kbps
Width : 720 pixels
Height : 304 pixels
Display aspect ratio : 2.35:1
Frame rate : 23.976 fps
Resolution : 24 bits
Colorimetry : 4:2:0
Scan type : Progressive
Bits/(Pixel*Frame) : 0.311
Stream size : 1.22 GiB (81%)
Writing library : XviD 58

Audio
ID : 1
Format : AC-3
Format/Info : Audio Coding 3
Codec ID : 2000
Duration : 1h 46mn
Bit rate mode : Constant
Bit rate : 384 Kbps
Channel(s) : 6 channels
Channel positions : Front: L C R, Surround: L R, LFE
Sampling rate : 48.0 KHz
Stream size : 293 MiB (19%)
Alignment : Aligned on interleaves
Interleave, duration : 64 ms (1.54 video frames)
Interleave, preload duration : 192 ms

Source: DVD-perfect a/v/sync quality
This torrent is not seedbox supported,please seed it to the MAX

Note:If you have something to offer as early releases,seedboxes,links,accounts,etc
please contact us on piratepedia[@]msn/gmail.com or our website torentz 3xforum ro

How To Get Your Maxspeed (uTorrent)

Torrent Client - Preferences - Bandwidth - Number of connections - Set aprox. 500 for each
Torrent Client - Preferences - BiTorrent - Protocol Encryption - Forced
Bandwidth Allocation - High (Set download/upload limit - Unlimited)
Stop Other Active Torrents - Start downloading and wait for connections.
Enjoy and Seed for at least 1:1 ratio. Don't forget to say thanks/leave reviews.
Before downloading you should check/google search sample "release name""sample".
Greets to all actual/future p2p/scene QUALITY groups and affiliate websites.
Don't trust IMDb robot or bad ratings,always watch some trailers first.
Ignore stupid comments/fake/mislabeled/no-DVDrips/CAM/TS/RAR uploads.
Please spread this release/torrent to your friends/forums/etc.
If you need translation subs visit some subtitles sites.
Report if you see online streaming or other spam links.
Recommended movie player VLC PLAYER.[/code]

Related torrents

Torrent NameAddedSizeSeedLeechHealth
1 Year+ - in Movies1.52 GB05
1 Year+ - in Movies1.36 GB057
1 Year+ - in Movies702.11 MB5939
5 months ago - in Movies1.56 GB00
6 months ago - in Movies2.03 GB00

Comments (0 Comments)




Please login or create a FREE account to post comments

Latest Searches

| team wordpress plugin | Starbuck 2011 avi | thundercats book one | Shameless US S07E10 720p HDTV X264 DIMENSION ettv | mechanics of materials beer solutions manual | cant shake it | 2016 yify avi | 2016 blood wars | The Royals 2015 S03E01 720p HDTV x264 FLEET | like a criminal |