Quick Browse
Movies
TV shows
Music
Games
Applications
Anime
Other
Facebook
Advertising

Friends
Torrent Download
Movie4u
1337x.to
Torrent Downloads




Case 39 DVDSCR Dual Audio NORARS


    Seeders : 130      Leechers : 158
Hash :5834C7236E9E71D2C841D87035D939595D5D13C1
Added :1 Year+ in Movies
Size :1.32 GB
Stream :WATCH ONLINE @ Movie4u


Case 39 DVDSCR Dual Audio NORARS
Free and Fast Download with Usenet 300GB+ free







Trackers List

Tracker NameLast CheckStatusSeedersLeechers




Torrent File Content (2 files)


Case 39 DVDSCR www.IWANNADOWNLOAD.com
     Case.39.DVDScr.Dual.Audio.XViD.www.IWANNADOWNLOAD.com.avi -
1.31 GB

     sample.avi -
4.09 MB



Description



Video Sample:
http://www.movshare.net/video/nzbnju8r1l1mz

http://www.imdb.com/title/tt0795351/
http://lookpic.com/i/271/nhJDsHv.jpeg


Format : AVI
Format/Info : Audio Video Interleave
File size : 1.31 GiB
Duration : 1h 44mn
Overall bit rate : 1 793 Kbps
Writing application : VirtualDubMod 1.5.10.2 (build 2542/release)
Writing library : VirtualDubMod build 2542/release

Video
ID : 0
Format : MPEG-4 Visual
Format profile : [email protected]
Format settings, BVOP : Yes
Format settings, QPel : No
Format settings, GMC : No warppoints
Format settings, Matrix : Default (H.263)
Muxing mode : Packed bitstream
Codec ID : XVID
Codec ID/Hint : XviD
Duration : 1h 44mn
Bit rate : 1 462 Kbps
Width : 704 pixels
Height : 304 pixels
Display aspect ratio : 2.35:1
Frame rate : 25.000 fps
Resolution : 24 bits
Colorimetry : 4:2:0
Scan type : Progressive
Bits/(Pixel*Frame) : 0.273
Stream size : 1.07 GiB (82%)
Writing library : XviD 1.1.2 (UTC 2006-11-01)

Audio #1
ID : 1
Format : AC-3
Format/Info : Audio Coding 3
Codec ID : 2000
Duration : 1h 43mn
Bit rate mode : Constant
Bit rate : 192 Kbps
Channel(s) : 2 channels
Channel positions : L R
Sampling rate : 48.0 KHz
Stream size : 142 MiB (11%)
Alignment : Split accross interleaves
Interleave, duration : 41 ms (1.02 video frame)
Interleave, preload duration : 500 ms

Audio #2
ID : 2
Format : MPEG Audio
Format version : Version 1
Format profile : Layer 3
Codec ID : 55
Codec ID/Hint : MP3
Duration : 1h 44mn
Bit rate mode : Constant
Bit rate : 128 Kbps
Channel(s) : 2 channels
Sampling rate : 44.1 KHz
Resolution : 16 bits
Stream size : 96.0 MiB (7%)
Alignment : Split accross interleaves
Interleave, duration : 40 ms (1.00 video frame)
Interleave, preload duration : 500 ms
Writing library : LAME3.82

Related torrents

Torrent NameAddedSizeSeedLeechHealth
1 Year+ - in Movies1.32 GB3339
1 Year+ - in Movies1.32 GB00
1 Year+ - in Movies1.32 GB1930
1 Year+ - in Movies980.19 MB32
9 months ago - in Other1.41 GB797161

Comments (0 Comments)




Please login or create a FREE account to post comments

Latest Searches

| gaping chloe couture slips us her rosebud | method in the madness | Alexis sierra | KarupsHA 16 05 16 Parker Swayze Solo 2 XXX 720p MP4 KTR | SEXY REFLECTION | Reina Taylor x265 | Transformers The Last Knight 2017 | american dad s13e05 720p | drama uncut | slutty girls love rocco 12 2016 webgift |