Quick Browse
Movies
TV shows
Music
Games
Applications
Anime
Other
Facebook
Advertising

Friends
Torrent Download
Movie4u
1337x.to
Torrent Downloads




Casino Royale hindi


    Seeders : 0      Leechers : 0
Hash :28C0FC4EDDD660127703DB384C7893519677BDD6
Added :1 Year+ by MrAkshay in Movies
Size :715.64 MB
Stream :WATCH ONLINE @ Movie4u


Casino Royale hindi
Free and Fast Download with Usenet 300GB+ free







Trackers List

Tracker NameLast CheckStatusSeedersLeechers




Torrent File Content (11 files)


Casino Royale hindi
    screenshots
          screenshot 4.png -
224.18 KB

          screenshot 6.png -
218.05 KB

          screenshot 3.png -
191.33 KB

          screenshot 1.png -
188.27 KB

          screenshot 2.png -
170.59 KB

          screenshot 5.png -
164.7 KB

          screenshot 7.png -
134.63 KB

     Casino Royale hindi.avi -
710.34 MB

     casino royale poster.bmp -
3.78 MB

     casino royale TPB.bmp -
263.12 KB

     Casino Royale hindi by Mr.Akshay.txt -
4.28 KB



Description




image : http://bayimg.com/faoBAAaCp


screenshots

http://bayimg.com/eAObEAacp

http://bayimg.com/eAObgAacP

http://bayimg.com/EaobHAacp

http://bayimg.com/EAoBiaACp

http://bayimg.com/EAobJAacP

http://bayimg.com/eAObkaAcp



---------------------------
| M O V I E information |
---------------------------
Title................................: Casino Royale
Director.............................: Martin Campbell
Release year.........................: 2006
Language.............................: hindi
Runtime..............................: 144 min
Genre................................: Action | Adventure | Thriller
Color................................: Color
IMDb rating..........................: 8.0/10 144,361 votes
Link 1...............................: http://www.imdb.com/title/tt0381061/


General

Complete name : Casino Royale hindi.avi

Format : AVI

Format/Info : Audio Video Interleave

File size : 710 MiB

Duration : 2h 14mn

Overall bit rate : 737 Kbps

Writing application : MEncoder SVN-r30881(20100311-gcc4.3.3)

Writing library : MPlayer





Video

ID : 0

Format : MPEG-4 Visual

Format profile : [email protected]

Format settings, BVOP : Yes

Format settings, QPel : No

Format settings, GMC : No warppoints

Format settings, Matrix : Default (H.263)

Codec ID : XVID

Codec ID/Hint : XviD

Duration : 2h 14mn

Bit rate : 597 Kbps

Width : 480 pixels

Height : 208 pixels

Display aspect ratio : 2.35:1

Frame rate : 25.000 fps

Resolution : 24 bits

Colorimetry : 4:2:0

Scan type : Progressive

Bits/(Pixel*Frame) : 0.239

Stream size : 575 MiB (81%)

Writing library : XviD 1.2.1 (UTC 2008-12-04)





Audio

ID : 1

Format : MPEG Audio

Format version : Version 1

Format profile : Layer 3

Codec ID : 55

Codec ID/Hint : MP3

Duration : 2h 14mn

Bit rate mode : Constant

Bit rate : 128 Kbps

Channel(s) : 2 channels

Sampling rate : 44.1 KHz

Resolution : 16 bits

Video delay : 40ms

Stream size : 123 MiB (17%)

Alignment : Aligned on interleaves

Interleave, duration : 26 ms (0.65 video frame)

Interleave, preload duration : 522 ms

Writing library : LAME3.98





screenshots

http://bayimg.com/eAObEAacp

http://bayimg.com/eAObgAacP

http://bayimg.com/EaobHAacp

http://bayimg.com/EAoBiaACp

http://bayimg.com/EAobJAacP

http://bayimg.com/eAObkaAcp



--------------------
| Post Information |
--------------------
Posted by............................: Mr.Akshay

----------------
| Plot summary |
----------------
James Bond goes on his first ever mission as a 00. Le Chiffre is a banker to the world's terrorists. He is participating in a poker game at Montenegro, where he must win back
his money, in order to stay safe among the terrorist market. The boss of MI6, known simply as M sends Bond, along with Vesper Lynd to attend this game and prevent Le Chiffre
from winning. Bond, using help from Felix Leiter, Mathis and having Vesper pose as his wife, enters the most important poker game in his already dangerous career. But if Bond
defeats Le Chiffre, will he and Vesper Lynd remain safe?

---------------
| Ripper note |
---------------
Please Seed & Post Comment
by Mr.Akshay

Related torrents

Torrent NameAddedSizeSeedLeechHealth
15 days ago - in Movies8.29 GB00
Verified torrent
1 Year+ - in Movies1.17 GB00
Verified torrent
1 Year+ - in Movies1.06 GB120
1 Year+ - in Movies3.47 GB00
1 Year+ - in Movies1.43 GB20

Comments (1 comment)




MrAkshay
» Torrent Uploader Torrent Uploader

Added 1 Year+
download &
plz... seed
Please login or create a FREE account to post comments

Latest Searches

| gravity movie2013 | G Eazy endless summer | Batman v superman extended 1080p x264 | aaathe talented mr ripley | technology business management | frank sinatra karaoke songs | tiny 720 | family movies Hindi | ana wilson | slipknot spit it out |