Quick Browse
Movies
TV shows
Music
Games
Applications
Anime
Other
Facebook
Advertising

Friends
Torrent Download
Movie4u
1337x.to
Torrent Downloads




Verified torrent Catch me if u can 2002 HDTV Rip~3385VKSH


    Seeders : 2      Leechers : 1
Hash :46CE3FCBB2397DA4C39CD81FC98DA2C5BC0211A4
Added :1 Year+ by VKS3385Verified torrent uploader in Movies
Size :812.57 MB
Stream :WATCH ONLINE @ Movie4u


Catch me if u can 2002 HDTV Rip~3385VKSH
Free and Fast Download with Usenet 300GB+ free







Trackers List

Tracker NameLast CheckStatusSeedersLeechers




Torrent File Content (2 files)


Catch Me If You Can (2002)
     Catch me if u can 2002 HDTV Rip.mkv -
807.35 MB

     Sample.mkv -
5.22 MB



Description



http://img63.imageshack.us/img63/1050/hddesirockers.png

http://img156.imageshack.us/img156/5382/roadsignphp.png


http://img101.imageshack.us/img101/9209/cmiyccover.png


http://img209.imageshack.us/img209/3343/25ic0hd1.png

An FBI agent tracks down and catches a young con artist who successfully impersonated an airline pilot,doctor, assistant attorney general and history professor, cashing more than $2.5 million in fraudulent checks in 26 countries.

http://img692.imageshack.us/img692/4868/zvbzx21.png

General
Complete name : Catch me if u can 2002 HDTV Rip~3385VKSH
Format : Matroska
File size : 807 MiB
Duration : 2h 12mn
Overall bit rate : 852 Kbps
Encoded date : UTC 2010-09-15 06:49:04
Writing application : mkvmerge v4.2.0 ('No Talking') built on Jul 28 2010 18:38:23
Writing library : libebml v1.0.0 + libmatroska v1.0.0


http://img839.imageshack.us/img839/7057/imdb3.png

[SIZE=3][URL]http://www.imdb.com/title/tt0264464/[/URL][/SIZE]

http://img214.imageshack.us/img214/241/windowsmediaplayerfile.png

Video
ID : 1
Format : AVC
Format/Info : Advanced Video Codec
Format profile : [email protected]
Format settings, CABAC : Yes
Format settings, ReFrames : 5 frames
Muxing mode : Container [email protected]
Codec ID : V_MPEG4/ISO/AVC
Duration : 2h 12mn
Bit rate : 650 Kbps
Width : 1 280 pixels
Height : 720 pixels
Display aspect ratio : 16:9
Frame rate : 25.000 fps
Original frame rate : 23.976 fps
Color space : YUV
Chroma subsampling : 4:2:0
Bit depth : 8 bits
Scan type : Progressive
Bits/(Pixel*Frame) : 0.028
Stream size : 609 MiB (75%)
Writing library : x264 core 60 r900 a9af942

http://img821.imageshack.us/img821/5307/2l3ravv.png

Audio
ID : 2
Format : MPEG Audio
Format version : Version 1
Format profile : Layer 3
Codec ID : A_MPEG/L3
Codec ID/Hint : MP3
Duration : 2h 12mn
Bit rate mode : Constant
Bit rate : 192 Kbps
Channel(s) : 2 channels
Sampling rate : 44.1 KHz
Video delay : 21ms
Stream size : 182 MiB (23%)
Language : Hindi

http://img827.imageshack.us/img827/7996/ogtw21.gif

http://img442.imageshack.us/img442/7485/catchmeifucan2002hdtvri.jpg

http://img705.imageshack.us/img705/7485/catchmeifucan2002hdtvri.jpg

http://img808.imageshack.us/img808/7485/catchmeifucan2002hdtvri.jpg

http://img841.imageshack.us/img841/7485/catchmeifucan2002hdtvri.jpg


http://img819.imageshack.us/img819/4206/slqp2p1.gif


http://img843.imageshack.us/img843/5108/seedyd3.gif


http://img842.imageshack.us/img842/9185/e5ab9ad248f9074c.gif


http://img806.imageshack.us/img806/4074/enjoy.png


http://img831.imageshack.us/img831/91/15880378.png

Related torrents

Torrent NameAddedSizeSeedLeechHealth
Verified torrent
2 months ago - in Movies1.47 GB12068
2 months ago - in Movies4.08 GB00
3 months ago - in Movies2.1 GB00
5 months ago - in Movies1.11 GB367
5 months ago - in Movies3.33 GB00

Comments (0 Comments)




Please login or create a FREE account to post comments

Latest Searches

| thick of it | animators survival kit animated | the spinners mp4 | Fiesta 1947 | art meets architecture | britney spears dvd | Mallu Sex audio | bedroom vol 1 | south park s20e03 shaanig | waiting for a like you |