Quick Browse
Movies
TV shows
Music
Games
Applications
Anime
Other
Facebook
Advertising

Friends
Torrent Download
Movie4u
1337x.to
Torrent Downloads




Verified torrent Catwoman 2004 [Dual Audio][ENG-HINDI]~3385VKSH


    Seeders : 1      Leechers : 23
Hash :ED87CB6F93A1F93181E419794442033F34351B5F
Added :1 Year+ by VKS3385Verified torrent uploader in Movies
Size :1.5 GB
Stream :WATCH ONLINE @ Movie4u


Catwoman 2004 [Dual Audio][ENG-HINDI]~3385VKSH
Free and Fast Download with Usenet 300GB+ free







Trackers List

Tracker NameLast CheckStatusSeedersLeechers




Torrent File Content (2 files)


Catwoman 2004 BRRip 720p Hindi
     Catwoman 2004 [Dual Audio][ENG-HINDI]~Sehrawat.Vkas3385.mkv -
1.49 GB

     Catwoman Sample.mkv -
6.48 MB



Description



http://img340.imageshack.us/img340/1050/hddesirockers.png

http://img62.imageshack.us/img62/5382/roadsignphp.png


http://img225.imageshack.us/img225/2407/33dh9cljpg.png


http://i50.tinypic.com/zvbzx2.jpg

General
Complete name :Catwoman 2004[Dual Audio[ENG-HINDI]~Sehrawat.Vkas3385.mkv
Format : Matroska
File size : 1.49 GiB
Duration : 1h 40mn
Overall bit rate : 2 134 Kbps
Encoded date : UTC 2010-07-28 05:40:33
Writing application : mkvmerge v4.1.1 ('Bouncin' Back') built on Jul 3 2010 22:54:08
Writing library : libebml v1.0.0 + libmatroska v1.0.0


http://img37.imageshack.us/img37/7218/vlcfile.png

ID : 1
Format : AVC
Format/Info : Advanced Video Codec
Format profile : [email protected]
Format settings, CABAC : Yes
Format settings, ReFrames : 8 frames
Muxing mode : Container [email protected]
Codec ID : V_MPEG4/ISO/AVC
Duration : 1h 40mn
Bit rate : 1 800 Kbps
Width : 1 280 pixels
Height : 528 pixels
Display aspect ratio : 2.40:1
Frame rate : 25.000 fps
Original frame rate : 23.976 fps
Color space : YUV
Chroma subsampling : 4:2:0
Bit depth : 8 bits
Scan type : Progressive
Bits/(Pixel*Frame) : 0.107
Stream size : 1.28 GiB (86%)
Writing library : x264 core 80 r1376M 3feaec2

http://img248.imageshack.us/img248/6613/musicfile1.png

Audio #1
ID : 2
Format : MPEG Audio
Format version : Version 1
Format profile : Layer 3
Mode : Joint stereo
Mode extension : MS Stereo
Codec ID : A_MPEG/L3
Codec ID/Hint : MP3
Duration : 1h 40mn
Bit rate mode : Constant
Bit rate : 128 Kbps
Channel(s) : 2 channels
Sampling rate : 48.0 KHz
Video delay : 2s 700ms
Stream size : 91.6 MiB (6%)

Audio #2
ID : 3
Format : MPEG Audio
Format version : Version 1
Format profile : Layer 3
Mode : Joint stereo
Mode extension : MS Stereo
Codec ID : A_MPEG/L3
Codec ID/Hint : MP3
Duration : 1h 39mn
Bit rate mode : Constant
Bit rate : 128 Kbps
Channel(s) : 2 channels
Sampling rate : 48.0 KHz
Video delay : 2s 600ms
Stream size : 91.5 MiB (6%)
Writing library : LAME3.97
Encoding settings : -m j -V 4 -q 2 -lowpass 17 -b 128


http://i43.tinypic.com/2rms307.jpg


http://img801.imageshack.us/img801/184/catwoman194257.png

http://img826.imageshack.us/img826/9662/catwoman194537.png

http://img826.imageshack.us/img826/1896/catwoman194931.png

http://img225.imageshack.us/img225/5264/catwoman195813.png

http://img337.imageshack.us/img337/4021/catwoman193957.png


http://img41.imageshack.us/img41/4206/slqp2p1.gif

http://i26.tinypic.com/24w6l1j.jpg


http://img205.imageshack.us/img205/91/15880378.png


Related torrents

Torrent NameAddedSizeSeedLeechHealth
1 Year+ - in Movies1.15 GB3112
1 Year+ - in Movies508.2 MB936
1 Year+ - in Movies300.04 MB039
1 Year+ - in Movies918.81 MB01
1 Year+ - in Movies920.59 MB213

Comments (0 Comments)




Please login or create a FREE account to post comments

Latest Searches

| Moms Love Anal Jayden Rae | top 5 hits of | yoga rain | bob dylan good | cia epub fiction | the format of | highschool | massive 2 1 | Blue 2009 Hindi 720p | funk jazz 2016 |