Quick Browse
Movies
TV shows
Music
Games
Applications
Anime
Other
Facebook
Advertising

Friends
Torrent Download
Movie4u
1337x.to
Torrent Downloads




Cecilie - Denmark Movie - TVRip-WS-XViD-greekadiko biz - English Subtitles


    Seeders : 0      Leechers : 1

Trackers List

Tracker NameLast CheckStatusSeedersLeechers




Torrent File Content (6 files)


Cecilie
     Cecilie.avi -
842.77 MB

     poster.png -
289.25 KB

     Cecilie_NEW_1.jpg -
24.8 KB

     Cecilie_NEW_2.jpg -
21.48 KB

     Cecilie_NEW.jpg -
15.78 KB

     Cecilie_NEW_3.jpg -
13.2 KB



Description



General
Complete name : Cecilie.avi
Format : AVI
Format/Info : Audio Video Interleave
File size : 843 MiB
Duration : 1h 32mn
Overall bit rate : 1 275 Kbps
Writing application : VirtualDubMod 1.5.4.1 (build 2178/release)
Writing library : VirtualDubMod build 2178/release

Video
ID : 0
Format : MPEG-4 Visual
Format profile : [email protected]
Format settings, BVOP : No
Format settings, QPel : No
Format settings, GMC : No warppoints
Format settings, Matrix : Default (H.263)
Codec ID : XVID
Codec ID/Hint : XviD
Duration : 1h 32mn
Bit rate : 1 155 Kbps
Width : 720 pixels
Height : 384 pixels
Display aspect ratio : 1.875
Frame rate : 29.970 fps
Resolution : 24 bits
Colorimetry : 4:2:0
Scan type : Progressive
Bits/(Pixel*Frame) : 0.139
Stream size : 763 MiB (91%)
Writing library : XviD 1.2.1 (UTC 2008-12-04)

Audio
ID : 1
Format : MPEG Audio
Format version : Version 1
Format profile : Layer 3
Codec ID : 55
Codec ID/Hint : MP3
Duration : 1h 32mn
Bit rate mode : Variable
Bit rate : 106 Kbps
Nominal bit rate : 128 Kbps
Channel(s) : 2 channels
Sampling rate : 48.0 KHz
Resolution : 16 bits
Stream size : 70.3 MiB (8%)
Alignment : Aligned on interleaves
Interleave, duration : 24 ms (0.72 video frame)
Interleave, preload duration : 533 ms
Writing library : LAME3.98r
Encoding settings : -m j -V 4 -q 2 -lowpass 17 --abr 128




Plot:

Cecilie experiences a rape, but no traces are found. Her husband commits her to a psychiatric hospital. With the help of a psychiatrist she sees a frightening connection between her condition and a brutal murder dating more than 30 years back.




Screenshots:

http://i50.tinypic.com/2ag2a8y.jpg


http://i49.tinypic.com/2zi510m.jpg


http://i49.tinypic.com/24b6zv7.jpg


http://i45.tinypic.com/6r33tg.jpg



Related torrents

Torrent NameAddedSizeSeedLeechHealth
1 Year+ - in Movies850.37 MB00
1 Year+ - in Movies750.47 MB00
1 Year+ - in Movies371.06 MB00
1 Year+ - in Movies707.3 MB00
1 Year+ - in Movies676.86 MB10

Comments (0 Comments)




Please login or create a FREE account to post comments

Latest Searches

| matthew sweet completely under covers | javier angulo | The School of Hard Cocks | Stompin Tom Connors DVD and CD Country Classics | Victor E Leo Ao Vivo Em Uberlandia | richard clapton anthology | skrillex ever | dirk detective agency s01e07 | twistys package | The Editor 2014 DVDRip |