Quick Browse
Movies
TV shows
Music
Games
Applications
Anime
Other

Donate and Support

Friends
Torrents.me
Torrent Download
Free Movies
1337x
RARBG
Torrent Downloads

Verified torrent Cee-Lo Green - Fuck You [KingPinVideos]


    Seeders : 49      Leechers : 2
Hash :EE0DD7AADDE2953BA06324975E32C033BF45CAAF
Added :1 Year+ by KingPinVerified torrent uploader in Music - Music Videos
Size :77.9 MB
Stream :Watch Full Movies Online @ Movie4u
Share :


Cee-Lo Green - Fuck You [KingPinVideos]
Anonymous and free Direct Download







Warning! Do not Download Torrents Without a VPN!
Your IP Address is .   And Location is
Your Internet Provider and Government can track your torrent Activity!  Hide your IP ADDRESS with a VPN!
We Strongly Recommend Using SpyOFF Torrent VPN to Anonymize your Torrenting. It's FREE For 15 Days!

Note :

Please Update (Trackers Info) Before Downloading Torrents to See Updated Seeders And Leechers for Batter Download Speed.

Trackers List

Tracker NameLast CheckStatusSeedersLeechers




Torrent File Content (5 files)


Cee-Lo Green - Fuck You [KingPinVideos]
     Cee-Lo Green - Fuck You [KingPinVideos].mpg -
77.9 MB

     Cee-Lo Green - Fuck You [KingPinVideos].nfo -
1.9 KB

     Cee-Lo Green - Fuck You [KingPinVideos].txt -
1.63 KB

     Torrent downloaded from Demonoid.com.txt -
47 bytes

     Torrent Downloaded from Limetorrents.com.txt -
46 bytes



Description



http://img837.imageshack.us/img837/3559/ceelofuckyou.png


http://img39.imageshack.us/img39/2034/ceelofuckyou2.png


[code]General
Complete name : Cee Lo Green - Fuck You [KingPinVideos].mpg
Format : MPEG-PS
File size : 77.9 MiB
Duration : 3mn 48s
Overall bit rate : 2 857 Kbps
Writing library : encoded by TMPGEnc 4.0 XPress Version. 4.7.4.299

Video
ID : 224 (0xE0)
Format : MPEG Video
Format version : Version 1
Format settings, BVOP : Yes
Format settings, Matrix : Default
Duration : 3mn 48s
Bit rate mode : Constant
Bit rate : 2 616 Kbps
Nominal bit rate : 2 700 Kbps
Width : 384 pixels
Height : 208 pixels
Display aspect ratio : 16:9
Frame rate : 29.970 fps
Resolution : 8 bits
Scan type : Progressive
Bits/(Pixel*Frame) : 1.093
Stream size : 71.3 MiB (92%)
Writing library : TMPGEnc XPress 4.7.4.299

Audio
ID : 192 (0xC0)
Format : MPEG Audio
Format version : Version 1
Format profile : Layer 2
Duration : 3mn 48s
Bit rate mode : Constant
Bit rate : 128 Kbps
Channel(s) : 2 channels
Sampling rate : 48.0 KHz
Stream size : 3.49 MiB (4%)[/code]

Related torrents

Torrent NameAddedSizeSeedLeechHealth
1 Year+ - in Music199.46 MB00
1 Year+ - in Music193.25 MB00
2 months ago - in Other3.62 MB00
1 Year+ - in Music9.29 MB00
1 Year+ - in Music9.35 MB24

Comments (0 Comments)




Please login or create a FREE account to post comments

Latest Searches

| Russian sluts Lola Shine Lola Bulgari in | whose line is it HEVC MeGusta 720p | hell the sequel album | CAUWELAERT Dictionnaire de limpossible | wiz khalifa whippin a brick | dvdfab v 10 0 3 5 | 1 jilo | Gameplay movie | Khaidi esub | 220 |