Quick Browse
Movies
TV shows
Music
Games
Applications
Anime
Other
Facebook
Advertising

Friends
Torrent Download
Movie4u
1337x.to
Torrent Downloads




Verified torrent Cee-Lo Green - Fuck You [KingPinVideos]


    Seeders : 49      Leechers : 2
Hash :EE0DD7AADDE2953BA06324975E32C033BF45CAAF
Added :1 Year+ by KingPinVerified torrent uploader in Music - Music Videos
Size :77.9 MB
Stream :WATCH ONLINE @ Movie4u


Cee-Lo Green - Fuck You [KingPinVideos]
Free and Fast Download with Usenet 300GB+ free







Trackers List

Tracker NameLast CheckStatusSeedersLeechers




Torrent File Content (5 files)


Cee-Lo Green - Fuck You [KingPinVideos]
     Cee-Lo Green - Fuck You [KingPinVideos].mpg -
77.9 MB

     Cee-Lo Green - Fuck You [KingPinVideos].nfo -
1.9 KB

     Cee-Lo Green - Fuck You [KingPinVideos].txt -
1.63 KB

     Torrent downloaded from Demonoid.com.txt -
47 bytes

     Torrent Downloaded from Limetorrents.com.txt -
46 bytes



Description



http://img837.imageshack.us/img837/3559/ceelofuckyou.png


http://img39.imageshack.us/img39/2034/ceelofuckyou2.png


[code]General
Complete name : Cee Lo Green - Fuck You [KingPinVideos].mpg
Format : MPEG-PS
File size : 77.9 MiB
Duration : 3mn 48s
Overall bit rate : 2 857 Kbps
Writing library : encoded by TMPGEnc 4.0 XPress Version. 4.7.4.299

Video
ID : 224 (0xE0)
Format : MPEG Video
Format version : Version 1
Format settings, BVOP : Yes
Format settings, Matrix : Default
Duration : 3mn 48s
Bit rate mode : Constant
Bit rate : 2 616 Kbps
Nominal bit rate : 2 700 Kbps
Width : 384 pixels
Height : 208 pixels
Display aspect ratio : 16:9
Frame rate : 29.970 fps
Resolution : 8 bits
Scan type : Progressive
Bits/(Pixel*Frame) : 1.093
Stream size : 71.3 MiB (92%)
Writing library : TMPGEnc XPress 4.7.4.299

Audio
ID : 192 (0xC0)
Format : MPEG Audio
Format version : Version 1
Format profile : Layer 2
Duration : 3mn 48s
Bit rate mode : Constant
Bit rate : 128 Kbps
Channel(s) : 2 channels
Sampling rate : 48.0 KHz
Stream size : 3.49 MiB (4%)[/code]

Related torrents

Torrent NameAddedSizeSeedLeechHealth
1 Year+ - in Music199.46 MB00
1 Year+ - in Music193.25 MB00
1 Year+ - in Music9.29 MB00
1 Year+ - in Music9.35 MB24
1 Year+ - in Music12.6 MB1,127219

Comments (0 Comments)




Please login or create a FREE account to post comments

Latest Searches

| XHamster British 5 Star 1 too 4 Minutes RIPS 12 10 2012 Amature | i contain | do like dude | Glee Cast All I Want For Christmas Is You HD 720P NimitMak SilverRG | BustArtist GrOw 6 Milking The Plot Chapter 8 | mtv battle of the sexes 2 | a royal affair subs eng | LOST 1080P AUDIO LATINO | spencer mp4 | UkRealitySwingers Demona Dragon Inked And Gangfucked mp4 |