Quick Browse
Movies
TV shows
Music
Games
Applications
Anime
Other
Facebook
Friends
Torrent Download
Free Movies
1337x.to
Torrent Downloads

Verified torrent Chalet Girl 2011 R5 XViD - IMAGiNE


    Seeders : 0      Leechers : 0
Hash :9205CCD2DDC65BD84BBF6BD4A571BEA0AC90544F
Added :1 Year+ by memory100Verified torrent uploader in Movies
Size :1.38 GB
Stream :Watch Full Movies Online @ Movie4u
Share :


Chalet Girl 2011 R5 XViD - IMAGiNE
Anonymous and Direct Download 300GB+ free







Warning! Do not Download Torrents Without a VPN!
Your IP Address is .   And Location is
Your Internet Provider and Government can track your torrent Activity!  Hide your IP ADDRESS with a VPN!
We Strongly Recommend Using SpyOFF Torrent VPN to Anonymize your Torrenting. It's FREE For 15 Days!

Note :

Please Update (Trackers Info) Before Downloading Torrents to See Updated Seeders And Leechers for Batter Download Speed.

Trackers List

Tracker NameLast CheckStatusSeedersLeechers




Torrent File Content (8 files)


Chalet Girl 2011 R5 XViD - IMAGiNE
     Budget seedboxs.txt -
44 bytes

     Chalet Girl 2011 R5 XViD - IMAGiNE SAMPLE.avi -
13.41 MB

     Chalet Girl 2011 R5 XViD - IMAGiNE.avi -
1.37 GB

     Chalet Girl 2011 R5 XViD - IMAGiNE.NFO -
4.8 KB

     NW RG.nfo -
12.96 KB

     Torrent downloaded from Demonoid.me.txt -
46 bytes

     dreamthe.net.txt -
91 bytes

     northernwarriors.net.txt -
135 bytes



Description



http://img807.imageshack.us/img807/8438/chalet.jpg

[code]
Chalet Girl 2011 R5 XViD - IMAGiNE

Ripper ...........: IMAGiNE IMDB Rating.......: 5.8/10

Video Codec.......: XVID Release Date......: 11/05/11

Audio Codec.......: AC3 Theatre Date......: 17/02/11

Audio Bitrate.....: 448 Runtime.......: 1h 32mn

Subtitles.........: NIL Language..........: ENGLISH

Resolution......: 720x 384 IMDb URL..........: http://www.imdb.com/title/tt1487118/

DETAILS:

Video
ID : 0
Format : MPEG-4 Visual
Format profile : Advanced [email protected]
Format settings, BVOP : 2
Format settings, QPel : No
Format settings, GMC : No warppoints
Format setings, Matrix : Default (MPEG)
Muxing mode : Packed bitstream
Codec ID : XVID
Codec ID/Hint : XviD
Duration : 1h 32mn
Bit rate : 1 659 Kbps
Width : 720 pixels
Height : 384 pixels
Display aspect ratio : 1.875
Frame rate : 25.000 fps
Color space : YUV
Chroma subsampling : 4:2:0
Bit depth : 8 bits
Scan type : Progressive
Compression mode : Lossy
Bits/(Pixel*Frame) : 0.240
Stream size : 1.07 GiB (78%)
Writing library : XviD 61

Audio
ID : 1
Format : AC-3
Format/Info : Audio Coding 3
Mode extension : CM (complete main)
Codec ID : 2000
Duration : 1h 32mn
Bit rate mode : Constant
Bit rate : 448 Kbps
Channel(s) : 6 channels
Channel positions : Front: L C R, Side: L R, LFE
Sampling rate : 48.0 KHz
Bit depth : 16 bits
Compression mode : Lossy
Stream size : 297 MiB (21%)
Alignment : Aligned on interleaves
Interleave, duration : 40 ms (1.00 video frame)
Interleave, preload duration : 512 ms

Plot:
Pretty tomboy Kim Matthews, 19, used to be a champion skateboarder - but now she's stuck in a dead end job trying to support her Dad.

SOURCES:
VIDEO: Kak.vyjti.zamuzh.za.milliardera.2011.D.DVD.ELEKTRI4KA
AUDIO: Kak.vyjti.zamuzh.za.milliardera.2011.D.DVD.ELEKTRI4KA Thanx Matey

NOTES:
IMAGiNE bringing you another release..........

Chalet Girl......

Well here we are with our version, not too much to say the source was nice so not much work was needed....

The usual crop resize sharpen yada yada Audio is nice english studio we remuxed to our encode

Enjoy Folks!
[/code]
Screens:
http://img52.imageshack.us/img52/695/22931144.jpg

http://img593.imageshack.us/img593/9758/67705352.jpg

http://img685.imageshack.us/img685/9625/24041310.jpg

http://img135.imageshack.us/img135/5985/10489389.jpg

Related torrents

Torrent NameAddedSizeSeedLeechHealth
1 Year+ - in Movies1.37 GB136
1 Year+ - in Movies412.74 MB18
1 Year+ - in Movies705.8 MB00
1 Year+ - in Movies705.8 MB09
1 Year+ - in Movies1.38 GB03

Comments (0 Comments)




Please login or create a FREE account to post comments

Latest Searches

| one stan | TryTeens E270 Cindy Shine | Isaacs Hardstyle Sessions 42 | 1998 wwf | h games action princess of mushroom country ver 2 0 rj084666 | 1080p mclaren | Legendary Tracks Part 3 Hockenheim | The Beatles Sgt Peppers Lonely Hearts Club Band | BangBus Alyssa Cole Bang Bus to The Rescue | bloodline webrip ettv |