Quick Browse
Movies
TV shows
Music
Games
Applications
Anime
Other
Facebook
Advertising

Friends
Torrent Download
Movie4u
1337x.to
Torrent Downloads




Verified torrent Channa Sachi Muchi ( 2010 ) Punjabi PDvD Rip Avc { XMR [email protected]


    Seeders : 31      Leechers : 29

Trackers List

Tracker NameLast CheckStatusSeedersLeechers




Torrent File Content (1 file)


Channa Sachi Muchi ( 2010 ) PDvD - Rip - Avc - { XMR }
     Channa Sachi Muchi ( 2010 ) PDvD - Rip - Avc - { XMR }.mkv -
1.36 GB



Description



[color=green][font=Georgia]
Ripper : Rahul
Complete name : Channa Sachi Muchi ( 2010 )
Format : Matroska
File size : 1.36 GiB
Duration : 2h 24mn
Overall bit rate : 1 345 Kbps
Movie name : VIDEO_TS
Encoded date : UTC 2010-10-15 19:10:59

Video
ID : 1
Format : AVC
Format/Info : Advanced Video Codec
Format profile : [email protected]
Format settings, CABAC : Yes
Format settings, ReFrames : 3 frames
Muxing mode : Container [email protected]
Codec ID : V_MPEG4/ISO/AVC
Duration : 2h 24mn
Bit rate : 870 Kbps
Width : 720 pixels
Height : 298 pixels
Display aspect ratio : 2.40:1
Frame rate : 23.976 fps
Color space : YUV
Chroma subsampling : 4:2:0
Bit depth : 8 bits
Scan type : Progressive
Bits/(Pixel*Frame) : 0.169
Stream size : 898 MiB (65%)
Writing library : x264 core 105 r1732 2b04482


Audio
ID : 2
Format : AC-3
Format/Info : Audio Coding 3
Mode extension : CM (complete main)
Codec ID : A_AC3
Duration : 2h 24mn
Bit rate mode : Constant
Bit rate : 448 Kbps
Channel(s) : 6 channels
Channel positions : Front: L C R, Side: L R, LFE
Sampling rate : 48.0 KHz
Bit depth : 16 bits
Stream size : 462 MiB (33%)

CAST

Miss Pooja

Goldy Somal

Jas Prem Dhillon

Rana Ranbir

Producer Iqbal Dhillon

Writer & Director

Harinder Gill
[/font][/color]

http://img221.imageshack.us/img221/7739/vlcsnap2010101521h26m29.jpg

http://img267.imageshack.us/img267/1264/vlcsnap2010101521h27m02.jpg

http://img833.imageshack.us/img833/9931/vlcsnap2010101521h27m43.jpg

http://img826.imageshack.us/img826/1305/vlcsnap2010101521h29m18.jpg

http://img297.imageshack.us/img297/2525/vlcsnap2010101521h33m19.jpg


Related torrents

Torrent NameAddedSizeSeedLeechHealth
1 Year+ - in Movies678.68 MB10
1 Year+ - in Movies695.15 MB7370
1 Year+ - in Movies700.12 MB124222
1 Year+ - in Movies693.35 MB2732
1 Year+ - in Movies697.59 MB00

Comments (0 Comments)




Please login or create a FREE account to post comments

Latest Searches

| cops s29e22 | porn classic french | who do you love ft yg | va ballermann hitparade karneval 3cd 2016 | as real as you Rihanna | BEAUTY AND THE BEAST Official Trailer 2017 | selena gomez love you like y love you song | positive grid bias os x | black yellow g | legend of the galactic heroes 11 |