Quick Browse
TV shows

Latest Articles

Torrent Download
Free Movies
Torrent Downloads

Verified torrent Charlie St Cloud[2010]DvDrip-LW

    Seeders : 0      Leechers : 0

Hash :671934D182D42F2FEF1EAB61D042C42CFB99F728
Added :1 Year+ by XoLWoXVerified torrent uploader in Movies
Size :697.19 MB
Stream :Watch Online Full Movie @ Movie4u
Share :

Charlie St Cloud[2010]DvDrip-LW
Download Direct And Anonymously

Warning! Do not Download Torrents Without a VPN!
Your IP Address is .   And Location is
Your Internet Provider and Government can track your torrent Activity!  Hide your IP ADDRESS with a VPN!
We Strongly Recommend Using CyberGhost VPN to Anonymize your Torrenting.

Note :

Please Update (Trackers Info) Before Downloading Torrents to See Updated Seeders And Leechers for Batter Download Speed.

Trackers List

Tracker NameLast CheckStatusSeedersLeechers
udp://tracker.ilibr.org:6969/announceLast Monthsuccess00
http://tracker.nwps.ws:6969/announceLast Monthsuccess00
http://exodus.desync.com:6969/announceLast Monthsuccess00
http://tracker.thepiratebay.org/announceLast Monthsuccess00
http://tracker.istole.it/announceLast Monthsuccess00
http://bigfoot1942.sektori.org:6969/announceLast Monthsuccess00
http://announce.torrentsmd.com:6969/announceLast Monthsuccess00
udp://tracker.coppersurfer.tk:80Last Monthsuccess00
udp://open.demonii.com:80Last Monthsuccess00
udp://tracker.zond.org:80/announceLast Monthsuccess00
http://fr33dom.h33t.com:3310/announceLast Monthsuccess00
http://tracker.best-torrents.net:6969/announceLast Monthsuccess00
http://torrent.gresille.org/announceLast Monthsuccess00
http://darkbay.org/announce.phpLast Monthsuccess00
http://torrent-tracker.ru/announce.phpLast Monthsuccess00
udp://tracker.btzoo.eu:80/announceLast Monthsuccess00
http://tracker.winglai.com/announceLast Monthsuccess00
http://tracker.windsormetalbattery.com/announceLast Monthsuccess00
udp://open.demonii.com:1337/announceLast Monthsuccess00
http://tracker.publicbt.com/announceLast Monthsuccess00
http://exodus.1337x.org/announceLast Monthsuccess00
udp://tracker.token.ro:80/announceLast Monthsuccess00
udp://tracker.ccc.de:80/announceLast Monthsuccess00
udp://10.rarbg.me:80/announceLast Monthsuccess00
udp://tracker.publicbt.com:80/announceLast Monthsuccess00
udp://tracker.openbittorrent.com:80/announceLast Monthsuccess00
udp://tracker.istole.it:80/announceLast Monthsuccess00
udp://ipv4.tracker.harry.lu:80/announceLast Monthsuccess00
udp://9.rarbg.com:2710/announceLast Monthsuccess00
http://tracker.trackerfix.com/announceLast Monthsuccess00
udp://tracker.1337x.org:80/announceLast Monthsuccess00

Torrent File Content (6 files)

Charlie St Cloud[2010]DvDrip-LW
          CSC-Cover.png -
333.17 KB

          Movie Info.nfo -
14.76 KB

          Movie Info.txt -
3.28 KB

          Charlie St Cloud[2010]DvDrip-LW.avi -
696.84 MB

          Torrent downloaded from AhaShare.com.txt -
59 bytes

          tracked_by_h33t_com.txt -
23 bytes




File Name : Charlie St. Cloud[2010]DvDrip-LW
Type : Movie
Format : AVI
File Size : 696 MB
Duration : 01:39:22
Language : English
Source : DvD
Subtitles : None
Genre : Fantasy | Romance | Drama
IMDB Link : http://www.imdb.com/title/tt1438254/

Format : MPEG-4 Visual
Format profile : [email protected]
Format settings, BVOP : Yes
Format settings, QPel : No
Format settings, GMC : No warppoints
Format settings, Matrix : Default (MPEG)
Muxing mode : Packed bitstream
Codec ID : XVID
Codec ID/Hint : XviD
Duration : 1h 39mn
Bit rate : 843 Kbps
Width : 640 pixels
Height : 272 pixels
Display aspect ratio : 2.35:1
Frame rate : 23.976 fps
Color space : YUV
Chroma subsampling : 4:2:0
Bit depth : 8 bits
Scan type : Progressive
Bits/(Pixel*Frame) : 0.202
Stream size : 599 MiB (86%)
Writing library : XviD 1.0.3

Format : MPEG Audio
Format version : Version 1
Format profile : Layer 3
Mode : Joint stereo
Mode extension : MS Stereo
Codec ID : 55
Codec ID/Hint : MP3
Duration : 1h 39mn
Bit rate mode : Variable
Bit rate : 128 Kbps
Channel(s) : 2 channels
Sampling rate : 48.0 KHz
Stream size : 88.7 MiB (13%)
Alignment : Aligned on interleaves
Interleave, duration : 24 ms (0.58 video frame)
Interleave, preload duration : 326 ms
Writing library : LAME3.90

Ben Sherwood's intriguing novel is the basis of
this ghost story about Charlie (Zac Efron), who is
devoted to his brother, Sam, even after Sam's death.
As the caretaker of the cemetery where Sam is buried,
Charlie has lots of time to commune with the dead.
Sam visits frequently to hang out with Charlie, but
when Charlie meets a mysterious young woman (Amanda
Crew), he must decide whether to move forward or
remain trapped in the past.

Cast: Zac Efron, Charlie Tahan

Director: Burr Steers






Related torrents

Torrent NameAddedSizeSeedLeechHealth
7 months ago - in Movies700.02 MB00
1 Year+ - in Movies1.2 GB00
1 Year+ - in Movies1.89 GB00
1 Year+ - in Movies1.25 GB00
1 Year+ - in Movies8.71 GB00

Note :

Feel free to post any comments about this torrent, including links to Subtitle, samples, screenshots, or any other relevant information. Please Dont Download anything from Comments, And Dont Post Links to Streaming Sites like Fmovies, Xmovies8, 123Movies, GoMovies, CMovieshd, Solarmovie, Watchfree, Putlockers, GoStream, m4ufree etc.

Comments (0 Comments)

Please login or create a FREE account to post comments

Latest Searches

| made an america | affect3d z | Make Me Sweat Roma Amor Sinful XXX HDRip 720p | mouthful amarna miller | deivamum | little jayla | BBW Dreams 3 | LEGO Ninjago Masters of Spinjitzu S06E01 10 WEB DL x264 AAC | 2 years lyrics | angelzlive |