Quick Browse
Movies
TV shows
Music
Games
Applications
Anime
Other
Facebook
Advertising

Friends
Torrent Download
Movie4u
1337x.to
Torrent Downloads




Verified torrent Charlie St Cloud[2010]DvDrip-LW


    Seeders : 199      Leechers : 152
Hash :671934D182D42F2FEF1EAB61D042C42CFB99F728
Added :1 Year+ by XoLWoXVerified torrent uploader in Movies
Size :697.19 MB
Stream :WATCH ONLINE @ Movie4u


Charlie St Cloud[2010]DvDrip-LW
Free and Fast Download with Usenet 300GB+ free







Trackers List

Tracker NameLast CheckStatusSeedersLeechers




Torrent File Content (6 files)


Charlie St Cloud[2010]DvDrip-LW
    Cover
          CSC-Cover.png -
333.17 KB

    Info
          Movie Info.nfo -
14.76 KB

          Movie Info.txt -
3.28 KB

    Movie
          Charlie St Cloud[2010]DvDrip-LW.avi -
696.84 MB

    Trackers
          Torrent downloaded from AhaShare.com.txt -
59 bytes

          tracked_by_h33t_com.txt -
23 bytes



Description



http://imgr.us/images/djufm22kp1dp5fpq9e3h.png

-------------------------------------------------
http://imgr.us/images/q9oy4odn5053an1o867h.png

-------------------------------------------------
File Name : Charlie St. Cloud[2010]DvDrip-LW
Type : Movie
Format : AVI
File Size : 696 MB
Duration : 01:39:22
Language : English
Source : DvD
Subtitles : None
Genre : Fantasy | Romance | Drama
IMDB Link : http://www.imdb.com/title/tt1438254/
-------------------------------------------------
http://imgr.us/images/a14k8fabur54ad5gubq4.png

-------------------------------------------------
Format : MPEG-4 Visual
Format profile : [email protected]
Format settings, BVOP : Yes
Format settings, QPel : No
Format settings, GMC : No warppoints
Format settings, Matrix : Default (MPEG)
Muxing mode : Packed bitstream
Codec ID : XVID
Codec ID/Hint : XviD
Duration : 1h 39mn
Bit rate : 843 Kbps
Width : 640 pixels
Height : 272 pixels
Display aspect ratio : 2.35:1
Frame rate : 23.976 fps
Color space : YUV
Chroma subsampling : 4:2:0
Bit depth : 8 bits
Scan type : Progressive
Bits/(Pixel*Frame) : 0.202
Stream size : 599 MiB (86%)
Writing library : XviD 1.0.3
-------------------------------------------------
http://imgr.us/images/2s0oz5wrpxo5em2q6m.png

-------------------------------------------------
Format : MPEG Audio
Format version : Version 1
Format profile : Layer 3
Mode : Joint stereo
Mode extension : MS Stereo
Codec ID : 55
Codec ID/Hint : MP3
Duration : 1h 39mn
Bit rate mode : Variable
Bit rate : 128 Kbps
Channel(s) : 2 channels
Sampling rate : 48.0 KHz
Stream size : 88.7 MiB (13%)
Alignment : Aligned on interleaves
Interleave, duration : 24 ms (0.58 video frame)
Interleave, preload duration : 326 ms
Writing library : LAME3.90
-------------------------------------------------
http://imgr.us/images/bnnacqs56aalgsuyqma.png

-------------------------------------------------
Ben Sherwood's intriguing novel is the basis of
this ghost story about Charlie (Zac Efron), who is
devoted to his brother, Sam, even after Sam's death.
As the caretaker of the cemetery where Sam is buried,
Charlie has lots of time to commune with the dead.
Sam visits frequently to hang out with Charlie, but
when Charlie meets a mysterious young woman (Amanda
Crew), he must decide whether to move forward or
remain trapped in the past.

Cast: Zac Efron, Charlie Tahan

Director: Burr Steers
-------------------------------------------------
http://imgr.us/images/7clcz7gn5qp6df9a7b1t.png

http://imgr.us/images/sfcv060nslg0ecbuepb.png

http://imgr.us/images/om4ifed802055gibrq63.png

http://imgr.us/images/k1dklhuuffp97bfmwuih.png

http://imgr.us/images/b3m828okemvu5y1zoj6.png

http://imgr.us/images/p3raleckmte5kueqx5tx.jpg

Related torrents

Torrent NameAddedSizeSeedLeechHealth
9 months ago - in Movies1.2 GB00
9 months ago - in Movies1.89 GB00
9 months ago - in Movies1.25 GB00
9 months ago - in Movies8.71 GB00
1 Year+ - in Other8.71 GB00

Comments (0 Comments)




Please login or create a FREE account to post comments

Latest Searches

| Kissas Ass Is In Danger Abella Danger Kissa Sins | miles prime | adobe acrobat dc for windows | alice pov | Bouddha mode d emploi | Dead Rising Endgame 2016 720p BluRay 900MB ShAaNiG | jack johnson | OK Kanmani 2015 Tamil 720p HDRip x264 AC3 5 1 1 4GB ESubs | NewBlue Plugins for Avid Edius Liquid Pinnacle Studio Premiere Vegas Ulead | All Microsoft Office Keys |