Quick Browse
Movies
TV shows
Music
Games
Applications
Anime
Other
Facebook
Friends
Torrent Download
Movie4u
1337x.to
Torrent Downloads

Charlottes Web (2006) (Dutch)(MPEG-4)(IPONE) 2Lions-Team


    Seeders : 4      Leechers : 14

Trackers List

Tracker NameLast CheckStatusSeedersLeechers




Torrent File Content (4 files)


Charlottes Web (2006) (Dutch)(MPEG-4)(IPONE) 2Lions-Team
    INFO 2Lions-Team
          logo 2Lions.jpg -
314.99 KB

          Charlottes Web (2006) (Dutch)(MPEG-4)(IPONE) 2Lions-Team.txt -
3.17 KB

          Torrents aan geboden door _2lions.ons-forum.nl.txt -
583 bytes

    MOVIE
          CHARLOTTES_WEB_NED.mp4 -
1.06 GB



Description



Charlottes Web (2006) (Dutch)(MPEG-4)(IPONE)

http://img214.imageshack.us/img214/1233/charlottesweb.jpg


Verenigde Staten
Familie / Fantasy
97 minuten

geregisseerd door Gary Winick
met Dakota Fanning, de stemmen van Julia Roberts en Kathy Bates

Het varkentje Wilbur wordt getergd door de zenuwen nu het einde van het seizoen nadert op de boerderij. Hij heeft sterke vermoedens dat hij nu op de eettafel zal belanden. Wilbur schakelt de hulp in van Charlotte, een spin die in zijn hok leeft, om zijn leven veilig te stellen. Ze bedenken een plan waarbij iedereen zal weten dat Wilbur niet zomaar een varkentje is en derhalve gered moet worden.

English

Wilbur the pig is scared of the end of the season, because he knows that come that time, he will end up on the dinner table. He hatches a plan with Charlotte, a spider that lives in his pen, to ensure that this will never happen.


DVD Info:
Bron: DVD 9 Pal
Audio : Dutch
Formaat : MPEG-4
Genre: Fantasiefilm / Familiefilm
[code]
Format : MPEG-4
Format profile : Base Media
Codec ID : isom
File size : 1.06 GiB
Duration : 1h 33mn
Overall bit rate : 1 632 Kbps


Video
ID : 1
Format : MPEG-4 Visual
Format profile : [email protected]
Format settings, BVOP : No
Format settings, QPel : No
Format settings, GMC : No warppoints
Format settings, Matrix : Default (H.263)
Codec ID : 20
Duration : 1h 33mn
Bit rate mode : Variable
Bit rate : 1 500 Kbps
Width : 720 pixels
Height : 406 pixels
Display aspect ratio : 16/9
Frame rate mode : Constant
Frame rate : 25.000 fps
Resolution : 24 bits
Colorimetry : 4:2:0
Scan type : Progressive
Bits/(Pixel*Frame) : 0.205
Stream size : 998 MiB (92%)
Writing library : Lavc51.40.4


Audio
ID : 2
Format : AAC
Format/Info : Advanced Audio Codec
Format version : Version 4
Format profile : LC
Format settings, SBR : No
Codec ID : 40
Duration : 1h 33mn
Bit rate mode : Variable
Bit rate : 128 Kbps
Channel(s) : 2 channels
Channel positions : L R
Sampling rate : 48.0 KHz
Resolution : 16 bits
Stream size : 85.1 MiB (8%)[/code]

Weblink : http://moviemeter.nl/film/31033
Weblink : http://www.imdb.com/title/tt0413895


*****************************************


Brought to you by
Pioen
http://i226.photobucket.com/albums/dd118/FloraKing/Avator/bloemenmeisje.gif

2Lions Team



http://i845.photobucket.com/albums/ab16/hortencia9/_96637_four_weddings_and_a_funeral_.jpg



2Lions-Team for all your Dutch MOVIES and more

*****************************************

DON T HIT AND RUN Niet gelijk afhaken als de film binnen is blijf seeden.

Related torrents

Torrent NameAddedSizeSeedLeechHealth
1 Year+ - in Movies1.03 GB100
1 Year+ - in Other416.82 MB01
1 Year+ - in Other25.59 MB233
1 Year+ - in Movies4.35 GB18
1 Year+ - in Movies3.87 GB00

Comments (0 Comments)




Please login or create a FREE account to post comments

Latest Searches

| lex the impaled | kat alli | Syd body | Superman Brainiac Attacks | Nicole Ready And Hot | Katy Rose Blonde teen has hardcore sex lesson | autocad 2012 product key keygen | left behind xxx | PartyHardcore Gone Crazy Vol 33 Part 2 | r e m 2017 |