Quick Browse
Movies
TV shows
Music
Games
Applications
Anime
Other
Facebook
Advertising

Friends
Torrent Download
Movie4u
1337x.to
Torrent Downloads




Verified torrent Cheech And Chong (Hey Watch This)


    Seeders : 0      Leechers : 0
Hash :8E110B8C8E4BB6B32C295924919E231B2685C30F
Added :1 Year+ by HannspreeVerified torrent uploader in Movies
Size :1.96 GB
Stream :WATCH ONLINE @ Movie4u


Cheech And Chong (Hey Watch This)
Free and Fast Download with Usenet 300GB+ free







Trackers List

Tracker NameLast CheckStatusSeedersLeechers




Torrent File Content (10 files)


Cheech And Chong (Hey Watch This)
    VIDEO_TS
          VIDEO_TS.BUP -
12 KB

          VIDEO_TS.IFO -
12 KB

          VIDEO_TS.VOB -
58 KB

          VTS_01_0.BUP -
62 KB

          VTS_01_0.IFO -
62 KB

          VTS_01_0.VOB -
58 KB

          VTS_01_1.VOB -
1023.97 MB

          VTS_01_2.VOB -
979.56 MB

     Cheech And Chong (Hey Watch This).jpg -
106.95 KB

     Everymans War.NFO -
5.88 KB



Description



====================================================================================================
A free ready made DVD movie from Hannspree - More will follow soon.
Please do be patient
====================================================================================================
This high quality DVD movie is already converted and ready for you to burn to a DVD disc
====================================================================================================
Movie Desc:

A documentary based on Cheech and Chong's "Light Up America" reunion tour.
====================================================================================================
Movie Specs:

GENERAL:
Complete name : Cheech And Chong (Hey Watch This)
Format : MPEG-PS
File size : 1.95 GB
Duration : 83 Minutes
Overall bit rate : 3 088 Kbps

VIDEO
ID : 224 (0xE0)
Format : MPEG Video
Format version : Version 2
Format profile : [email protected]
Format settings, BVOP : Yes
Format settings, Matrix : Default
Duration : 83 Minutes
Bit rate mode : Variable
Bit rate : 2 578 Kbps
Nominal bit rate : 9 352 Kbps
Width : 720 pixels
Height : 576 pixels
Display aspect ratio : 16:9
Frame rate : 24.000 fps
Standard : PAL
Color space : YUV
Chroma subsampling : 4:2:0
Bit depth : 8 bits
Scan type : Progressive
Scan order : 2:2:2:2:2:2:2:2:2:2:2:3 Pulldown
Bits/(Pixel*Frame) : 0.259
Stream size : 855 MiB (84%)

AUDIO:
ID : 128 (0x80)
Format : AC-3
Format/Info : Audio Coding 3
Mode extension : CM (complete main)
Duration : 83 Minutes
Bit rate mode : Constant
Bit rate : 448 Kbps
Channel(s) : 6 channels
Channel positions : Front: L C R, Side: L R, LFE
Sampling rate : 48.0 KHz
Stream size : 149 MiB (15%)
====================================================================================================
Stream:

Video: MPEG2 Video 720x576 (16:9) [Video]
Audio: Dolby AC3 48000Hz stereo [AC3]
====================================================================================================
Movie File Size:

1.95 GB (2,101,242,811 bytes)
====================================================================================================
Contains:

10 Files in 2 Folders (VIDEO_TS & AUDIO_TS)
====================================================================================================
IMDB Link:

http://www.imdb.com/title/tt1323598/
====================================================================================================
Free high quality ready to burn DVD movies from Hannspree
====================================================================================================

Related torrents

Torrent NameAddedSizeSeedLeechHealth
1 Year+ - in Movies790.27 MB014
1 Year+ - in Movies752.57 MB00
1 Year+ - in Movies750.5 MB11
1 Year+ - in Movies4.31 GB19209
1 Year+ - in Movies750.5 MB013

Comments (0 Comments)




Please login or create a FREE account to post comments

Latest Searches

| 112 Im | Bon Jovi Jon Bon Jovi Richie Sambora Collection Rock 1984 2016 MP3 | mo 3 | rihanna ft Eminem love the way you lie part 2 | Russian Babe Gets Fucked Hardcore | airtight angela white | Flume Never Be Like You feat Kai | 112 Im play | Enrique v Iglesias | momsbangteens milf in closet |