Quick Browse
Movies
TV shows
Music
Games
Applications
Anime
Other
Facebook
Advertising

Friends
Torrent Download
Movie4u
1337x.to
Torrent Downloads




Verified torrent Chicago Overcoat [DVD5] [ENG] [AC3] [Hannspree]


    Seeders : 0      Leechers : 1
Hash :948A1C2F88FA0991B6899B2CDFD85BD12D128330
Added :1 Year+ by HannspreeVerified torrent uploader in Movies
Size :1.71 GB
Stream :WATCH ONLINE @ Movie4u


Chicago Overcoat [DVD5] [ENG] [AC3] [Hannspree]
Free and Fast Download with Usenet 300GB+ free







Trackers List

Tracker NameLast CheckStatusSeedersLeechers




Torrent File Content (13 files)


Chicago Overcoat
    Chicago Overcoat [DVD]
          VIDEO_TS/VIDEO_TS.BUP -
12 KB

          VIDEO_TS/VIDEO_TS.IFO -
12 KB

          VIDEO_TS/VIDEO_TS.VOB -
58 KB

          VIDEO_TS/VTS_01_0.BUP -
64 KB

          VIDEO_TS/VTS_01_0.IFO -
64 KB

          VIDEO_TS/VTS_01_0.VOB -
58 KB

          VIDEO_TS/VTS_01_1.VOB -
1023.97 MB

          VIDEO_TS/VTS_01_2.VOB -
725.2 MB

    Chicago Overcoat [Images]
          Chicago Overcoat [Cover].jpg -
53.2 KB

          Chicago Overcoat [Disc].jpg -
24.96 KB

          Chicago Overcoat [Screens].jpg -
167.31 KB

     Chicago Overcoat.NFO -
3.83 KB

     Torrent downloaded from FT2.co.uk.txt -
44 bytes



Description



=====================================================================================
[ Another free, high quality, ready to burn DVD I will be adding new torrents on a daily basis - Remember to seed ]
=====================================================================================
MOVIE TITLE: Chicago Overcoat
LANGUAGE: English
MOVIE SUBS: No
BURN TESTED: Yes
FORMAT: Pal
GENRE: Action | Adventure | Crime | Drama
RUNTIME: 94 Minutes
YEAR: 2009
IMDB LINK: http://www.imdb.com/title/tt1085382/
=====================================================================================
MOVIE DESC:

The Chicago Outfit was the most powerful organized crime syndicate of the 20th century, and Lou Marazano (Frank Vincent) was their deadliest hit man. Twenty years after his most notorious wave of hits, Lou is a relic, his legend obscured, his talents forgotten his glory days over. When high-profile union representative Joe Barbone is arrested for tax fraud, the Outfit's top boss (Armand Assante) orders a string of key witnesses silenced before the Government can uncover a vast conspiracy involving police officers, city officials, and mob affiliates. When Lou finds out about the job, he sees an opportunity to finance his retirement and leave Chicago with his girlfriend (Kathrine Narducci). But when relentless detectives (Danny Goldring & Stacy Keach) begin nipping at his heels, and the acting street boss, (Mike Starr) who is looking to make his promotion permanent, decides to revoke Lou's membership to the Outfit. Lou must prove he is worthy of being the Outfit's most deadly hit man a title he held over twenty years ago.
=====================================================================================
MOVIE SPECS:

GENERAL:
Complete name : Chicago Overcoat [DVD5]
Format : MPEG-PS
File size : 1.70 GB
Duration : 94 Minutes
Overall bit rate : 2 736 Kbps

VIDEO:
ID : 224 (0xE0)
Format : MPEG Video
Format version : Version 2
Format profile : [email protected]
Format settings, BVOP : Yes
Format settings, Matrix : Default
Duration : 94 Minutes
Bit rate mode : Variable
Bit rate : 2 490 Kbps
Nominal bit rate : 9 608 Kbps
Width : 720 pixels
Height : 576 pixels
Display aspect ratio : 16:9
Frame rate : 25.000 fps
Standard : PAL
Color space : YUV
Chroma subsampling : 4:2:0
Bit depth : 8 bits
Scan type : Progressive
Bits/(Pixel*Frame) : 0.240
Stream size : 932 MiB (91%)

AUDIO:
ID : 128 (0x80)
Format : AC-3
Format/Info : Audio Coding 3
Mode extension : CM (complete main)
Duration : 94 Minutes
Bit rate mode : Constant
Bit rate : 192 Kbps
Channel(s) : 2 channels
Channel positions : Front: L R
Sampling rate : 48.0 KHz
Stream size : 71.8 MiB (7%)
=====================================================================================
TRACKERS:
http://www.ft2.co.uk:2710/announce
=====================================================================================
[FOOT NOTE]
If you are happy with this download, it would be nice to hear your views or comments that you might have. Enjoy
=====================================================================================
Screen Shot Of Chicago Overcoat
=====================================================================================
http://leetpic.com/images/chicagoove.jpg

=====================================================================================
http://torrent-stats.info/9b2c/8bfb0140.png

=====================================================================================

Related torrents

Torrent NameAddedSizeSeedLeechHealth
Verified torrent
1 Year+ - in Movies1.68 GB42
Verified torrent
1 Year+ - in Movies1.63 GB03
Verified torrent
1 Year+ - in Movies2.14 GB28
Verified torrent
1 Year+ - in Movies869.42 MB55
Verified torrent
1 Year+ - in Movies2 GB02

Comments (0 Comments)




Please login or create a FREE account to post comments

Latest Searches

| Forbidde Fruits Sibling Sex Stories DVDRip 2014 | Thailand 10 | Naberus Reveries 2013 | ASAn ANAL | letstryanal brittany shae pop stars anal footage new mofos july 05 2015 | the jungle book the legend of the giant claw 2016 hdrip xvid ac3 evo vr56 | complete season 1 silicon valley | bowling for soup baby one more time | Kings of Summer 2013 | The Mouse The Mask |