Quick Browse
Movies
TV shows
Music
Games
Applications
Anime
Other
Facebook
Friends
Torrent Download
Movie4u
1337x.to
Torrent Downloads

Chocolate 2005 Hindi DVDRip x264 E-SuB xRG


    Seeders : 3      Leechers : 8
Hash :9E0B2CA21668AF1104513B987589839296C2CBFE
Added :1 Year+ in Movies
Size :897.71 MB
Stream :WATCH ONLINE @ Movie4u


Chocolate 2005 Hindi DVDRip x264 E-SuB xRG
Anonymous and Direct Download 300GB+ free








Trackers List

Tracker NameLast CheckStatusSeedersLeechers




Torrent File Content (2 files)


Chocolate 2005 DVDRip x264 E-SuB xRG
     Chocolate 2005 DVDRip x264 E-SuB xRG.mp4 -
897.6 MB

     Chocolate 2005 DVDRip x264 E-SuB xRG.srt -
111.4 KB



Description



Chocolate 2005 Hindi DVDRip x264 E-SuB xRG

DVDRip Info

Video
Duration : 2h 42mn
Bit rate mode : Variable
Bit rate : 674 Kbps
Width : 608 pixels
Height : 256 pixels
Display aspect ratio : 2.35:1
Frame rate : 23.976 fps
Resolution : 24 bits
Scan type : Progressive
Stream size : 782 MiB (87%)

Audio
Bit rate mode : Variable
Bit rate : 96.0 Kbps
Maximum bit rate : 105 Kbps
Channel(s) : 2 channels
Channel positions : L R
Sampling rate : 48.0 KHz
Resolution : 16 bits
Stream size : 111 MiB (12%)


Screenshot

http://i33.tinypic.com/24yw80k.jpg
http://i38.tinypic.com/24qofx0.jpg
http://i38.tinypic.com/ejiqz4.jpg
http://i33.tinypic.com/21bpqwm.jpg
http://i36.tinypic.com/eb6iq0.jpg
http://i38.tinypic.com/207741i.jpg
http://i36.tinypic.com/33lgq5d.jpg
http://i34.tinypic.com/b8tm42.jpg
http://i33.tinypic.com/xn9jma.jpg
http://i37.tinypic.com/2aeugbl.jpg


Seeding is at 50kbps Enjoy

Related torrents

Torrent NameAddedSizeSeedLeechHealth
1 Year+ - in Movies953.72 MB17
1 Year+ - in Movies911.79 MB20
1 Year+ - in Movies983.01 MB01
1 Year+ - in Movies706.72 MB46
1 Year+ - in Movies1.37 GB00

Comments (0 Comments)




Please login or create a FREE account to post comments

Latest Searches

| stupid b | hot movei | we re new here gil scott heron | Last Resort E07 | wind bean | the sickest | alt j live at rocks | mr os | E 40 u n that | Maroon 5 It Won |