Quick Browse
Movies
TV shows
Music
Games
Applications
Anime
Other
Facebook
Advertising

Friends
Torrent Download
Movie4u
1337x.to
Torrent Downloads




Verified torrent Chris Brown - Yeah 3x [KingPinMKVideos] {MKV}


    Seeders : 1      Leechers : 0
Hash :52D7945C9AA3C20C1E0565EF182F367599921326
Added :1 Year+ by KingPinVerified torrent uploader in Music - Music Videos
Size :95.8 MB
Stream :WATCH ONLINE @ Movie4u


Chris Brown - Yeah 3x [KingPinMKVideos] {MKV}
Free and Fast Download with Usenet 300GB+ free







Trackers List

Tracker NameLast CheckStatusSeedersLeechers




Torrent File Content (5 files)


Chris Brown - Yeah 3x [KingPinMKVideos]
     Chris Brown - Yeah 3x[KingPinMKVideos].mkv -
95.79 MB

     Chris Brown - Yeah 3x [KingPinMKVideos].txt -
2.67 KB

     Chris Brown - Yeah 3x [KingPinMKVideos].nfo -
1.91 KB

     Torrent downloaded from Demonoid.com.txt -
47 bytes

     Torrent Downloaded from Limetorrents.com.txt -
46 bytes



Description



http://img576.imageshack.us/img576/883/chrisbrownyeah3.png


http://img179.imageshack.us/img179/8636/chrisbrownyeah32.png


[code]General
Complete name : Chris Brown - Yeah 3x [KingPinMKVideos].mkv
Format : Matroska
File size : 95.8 MiB
Duration : 4mn 21s
Overall bit rate : 3 072 Kbps
Encoded date : UTC 2010-10-21 21:59:58
Writing application : mkvmerge v4.0.0 ('The Stars were mine') built on Jun 6 2010 16:18:42
Writing library : libebml v1.0.0 + libmatroska v1.0.0

Video
ID : 1
Format : AVC
Format/Info : Advanced Video Codec
Format profile : [email protected]
Format settings, CABAC : Yes
Format settings, ReFrames : 4 frames
Muxing mode : Container [email protected]
Codec ID : V_MPEG4/ISO/AVC
Duration : 4mn 21s
Bit rate : 2 787 Kbps
Nominal bit rate : 2 838 Kbps
Width : 576 pixels
Height : 324 pixels
Display aspect ratio : 16:9
Frame rate : 23.976 fps
Resolution : 8 bits
Colorimetry : 4:2:0
Scan type : Progressive
Bits/(Pixel*Frame) : 0.623
Stream size : 86.8 MiB (91%)
Writing library : x264 core 98 r1649 20cbe10

Audio
ID : 2
Format : MPEG Audio
Format version : Version 1
Format profile : Layer 2
Codec ID : A_MPEG/L2
Codec ID/Hint : MP2
Duration : 4mn 21s
Bit rate mode : Constant
Bit rate : 224 Kbps
Channel(s) : 2 channels
Sampling rate : 44.1 KHz
Video delay : 85ms
Stream size : 6.98 MiB (7%)[/code]

Related torrents

Torrent NameAddedSizeSeedLeechHealth
1 Year+ - in Movies92.09 MB30
1 Year+ - in Music1.84 MB00
1 Year+ - in Music35.26 MB00
1 Year+ - in Music9.2 MB17
Verified torrent
1 Year+ - in Music91.19 MB11

Comments (0 Comments)




Please login or create a FREE account to post comments

Latest Searches

| albert hall itunes aac | Playboy USA a October 2015 | trini nicki minaj | mc neat mc luck | Playboy USA October 2015 | windows 7 transparent | bach d minor | spindrift the west | pervsonpatrol uma | ts massage e |