Quick Browse
Movies
TV shows
Music
Games
Applications
Anime
Other
Facebook
Advertising

Friends
Torrent Download
Movie4u
1337x.to
Torrent Downloads




Verified torrent Chris Brown - Yeah 3x [KingPinVideos]


    Seeders : 1      Leechers : 1
Hash :B4CDE0A45B2A3819E33A354D8FC92E1D9A85FD1C
Added :1 Year+ by KingPinVerified torrent uploader in Music - Music Videos
Size :91.19 MB
Stream :WATCH ONLINE @ Movie4u


Chris Brown - Yeah 3x [KingPinVideos]
Free and Fast Download with Usenet 300GB+ free







Trackers List

Tracker NameLast CheckStatusSeedersLeechers




Torrent File Content (5 files)


Chris Brown - Yeah 3x [KingPinVideos]
     Chris Brown - Yeah 3x [KingPinVideos].mpg -
91.19 MB

     Chris Brown - Yeah 3x [KingPinVideos].nfo -
1.91 KB

     Torrent Downloaded from Limetorrents.com.txt - Shortcut.lnk -
1.66 KB

     Chris Brown - Yeah 3x [KingPinVideos].txt -
1.63 KB

     Torrent downloaded from Demonoid.com.txt - Shortcut.lnk -
1.62 KB



Description



http://img576.imageshack.us/img576/883/chrisbrownyeah3.png


http://img179.imageshack.us/img179/8636/chrisbrownyeah32.png


[code]General
Complete name : Chris Brown - Yeah 3x [KingPinVideos].mpg
Format : MPEG-PS
File size : 89.0 MiB
Duration : 4mn 21s
Overall bit rate : 2 858 Kbps
Writing library : encoded by TMPGEnc 4.0 XPress Version. 4.7.4.299

Video
ID : 224 (0xE0)
Format : MPEG Video
Format version : Version 1
Format settings, BVOP : Yes
Format settings, Matrix : Default
Duration : 4mn 21s
Bit rate mode : Constant
Bit rate : 2 616 Kbps
Nominal bit rate : 2 700 Kbps
Width : 384 pixels
Height : 208 pixels
Display aspect ratio : 16:9
Frame rate : 29.970 fps
Resolution : 8 bits
Scan type : Progressive
Bits/(Pixel*Frame) : 1.093
Stream size : 81.5 MiB (92%)
Writing library : TMPGEnc XPress 4.7.4.299

Audio
ID : 192 (0xC0)
Format : MPEG Audio
Format version : Version 1
Format profile : Layer 2
Duration : 4mn 21s
Bit rate mode : Constant
Bit rate : 128 Kbps
Channel(s) : 2 channels
Sampling rate : 48.0 KHz
Stream size : 3.99 MiB (4%)[/code]

Related torrents

Torrent NameAddedSizeSeedLeechHealth
1 Year+ - in Movies92.09 MB30
1 Year+ - in Music1.84 MB00
1 Year+ - in Music35.26 MB00
1 Year+ - in Music9.2 MB17
Verified torrent
1 Year+ - in Music95.8 MB10

Comments (0 Comments)




Please login or create a FREE account to post comments

Latest Searches

| one of the lonely ones roy orbison | girls 11 | enigma devotion | corsair warhammer | person of interest season 1 complete | call u bitch | u booy | ccleaner pro 5 23 5808 | Fun Some Nights OFFICIAL VIDEO | exit time |