Quick Browse
Movies
TV shows
Music
Games
Applications
Anime
Other
Facebook
Advertising

Friends
Torrent Download
Movie4u
1337x.to
Torrent Downloads




Verified torrent Christmas in Wonderland 2007 DVDRIP XViD AC3-26K


    Seeders : 0      Leechers : 0
Hash :7CF2A0EB47C85819109BE41CC3D1EB671FD6D649
Added :1 Year+ by memory100Verified torrent uploader in Movies
Size :1.63 GB
Stream :WATCH ONLINE @ Movie4u


Christmas in Wonderland 2007 DVDRIP XViD AC3-26K
Free and Fast Download with Usenet 300GB+ free







Trackers List

Tracker NameLast CheckStatusSeedersLeechers




Torrent File Content (7 files)


Christmas in Wonderland 2007 DVDRIP XViD AC3-26K
     Christmas in Wonderland 2007 DVDRIP XViD AC3-26K (1).avi -
1.61 GB

     Christmas in Wonderland 2007 DVDRIP XViD AC3-26K.nfo -
3.3 KB

     HDSceneRG.txt -
115 bytes

     Torrent downloaded from Demonoid.me.txt -
46 bytes

     att-networks.com.txt -
39 bytes

     sample.avi -
23.57 MB

     sceneunderground.org.txt -
77 bytes



Description



http://img38.imageshack.us/img38/7591/chrismas.jpg

[code]
Christmas in Wonderland 2007 DVDRIP XViD AC3-26K

Imdb:
http://www.imdb.com/title/tt0991150/

Plot:
Three kids and their Dad move from L.A to Edmonton. When they go shopping at West Edmonton Mall they

find counterfeit cash. They inadvertently help catch the crooks, and later make a discovery about

Santa.

Sources:
DVDR THNXS

Notes:
Enjoy..!

Greetz:
Xtreme

Encode|FYA|ILLUMANTI|CM8|RX|VISION|HDSCENE|NIGHTMAREZ|xTriLL|DTRG|CRYS|REMIXHD|BIDA|RX|REFILL|INSPiRAL

|SIC|ZOMBIESZ|HOPE|Anonymous|GooN
To all the people who have helped me :P you know who you are

Anything to offer email us @: [email protected]

Video
ID : 0
Format : MPEG-4 Visual
Format profile : Advanced [email protected]
Format settings, BVOP : 1
Format settings, QPel : No
Format settings, GMC : No warppoints
Format settings, Matrix : Default (H.263)
Codec ID : XVID
Codec ID/Hint : XviD
Duration : 1h 34mn
Bit rate : 2 100 Kbps
Width : 720 pixels
Height : 320 pixels
Display aspect ratio : 2.25:1
Frame rate : 25.000 fps
Color space : YUV
Chroma subsampling : 4:2:0
Bit depth : 8 bits
Scan type : Progressive
Compression mode : Lossy
Bits/(Pixel*Frame) : 0.365
Stream size : 1.39 GiB (87%)
Writing library : XviD 1.2.1 (UTC 2008-12-04)

Audio
ID : 1
Format : AC-3
Format/Info : Audio Coding 3
Mode extension : CM (complete main)
Codec ID : 2000
Duration : 1h 34mn
Bit rate mode : Constant
Bit rate : 320 Kbps
Channel(s) : 6 channels
Channel positions : Front: L C R, Side: L R, LFE
Sampling rate : 44.1 KHz
Bit depth : 16 bits
Compression mode : Lossy
Stream size : 217 MiB (13%)
Alignment : Aligned on interleaves
Interleave, duration : 70 ms (1.74 video frames)
Interleave, preload duration : 208 ms
Title : Title 01

[/code]
Screens:
http://img267.imageshack.us/img267/9979/vlcsnap2012020813h27m55.png

http://img252.imageshack.us/img252/3636/vlcsnap2012020813h28m15.png

http://img837.imageshack.us/img837/1226/vlcsnap2012020813h28m20.png

http://img12.imageshack.us/img12/8766/vlcsnap2012020813h28m23.png


http://img851.imageshack.us/img851/5503/26ks.jpg

Thank you smallz for banner!

Related torrents

Torrent NameAddedSizeSeedLeechHealth
1 Year+ - in Movies1.37 GB22
1 Year+ - in Movies1.37 GB00
1 Year+ - in Movies1.57 GB134
1 Year+ - in Movies3.93 GB15
1 Year+ - in Movies701.21 MB00

Comments (0 Comments)




Please login or create a FREE account to post comments

Latest Searches

| o Bethlehem | a face like glass f | Implanted 2013 HDRip | a face like glass frances hardinge | Miss Peregrines Home for Peculiar Children 2016 x264 | teens having big sex | good city | because of you u | blindspot s02e09mux | Fake ID |