Quick Browse
Movies
TV shows
Music
Games
Applications
Anime
Other
Facebook
Advertising

Friends
Torrent Download
Movie4u
1337x.to
Torrent Downloads




Chronicle 2012 CAM READNFO XViD - INSPiRAL


    Seeders : 1      Leechers : 3
Hash :78CEC58614220044FB5151B8E4FB3CD37C2204D8
Added :1 Year+ by pixe1 in Movies
Size :965.87 MB
Stream :WATCH ONLINE @ Movie4u


Chronicle 2012 CAM READNFO XViD - INSPiRAL
Free and Fast Download with Usenet 300GB+ free







Trackers List

Tracker NameLast CheckStatusSeedersLeechers




Torrent File Content (12 files)


Chronicle 2012 CAM READNFO XViD - INSPiRAL
     Chronicle 2012 CAM READNFO XViD - INSPiRAL.rar -
964 MB

    Screens
          4.PNG -
385.57 KB

          3.PNG -
352.92 KB

          5.PNG -
339.84 KB

          6.PNG -
320.31 KB

          1.PNG -
283.08 KB

          2.PNG -
233.98 KB

     Chronicle 2012 CAM READNFO XViD - INSPiRAL.nfo -
2.84 KB

     HDSceneRG.txt -
115 bytes

     sceneunderground.org.txt -
77 bytes

     Torrent downloaded from Demonoid.me.txt -
46 bytes

     att-networks.com.txt -
39 bytes



Description



http://img851.imageshack.us/img851/8615/hrchronicle1.jpg

[code]

Chronicle 2012 CAM READNFO XViD - INSPiRAL

Imdb:
http://www.imdb.com/title/tt1706593/

Plot:
Three high school friends gain superpowers after making an incredible discovery. Soon, though, they find their lives spinning out of control and their bond tested as they embrace their darker sides.

Video
ID : 0
Format : MPEG-4 Visual
Format profile : Advanced [email protected]
Format settings, BVOP : 2
Format settings, QPel : No
Format settings, GMC : No warppoints
Format settings, Matrix : Default (H.263)
Codec ID : XVID
Codec ID/Hint : XviD
Duration : 1h 23mn
Bit rate : 2 300 Kbps
Width : 720 pixels
Height : 304 pixels
Display aspect ratio : 2.35:1
Frame rate : 25.000 fps
Color space : YUV
Chroma subsampling : 4:2:0
Bit depth : 8 bits
Scan type : Progressive
Compression mode : Lossy
Bits/(Pixel*Frame) : 0.420
Stream size : 839 MiB (87%)
Writing library : XviD 63

Audio
ID : 1
Format : AC-3
Format/Info : Audio Coding 3
Mode extension : CM (complete main)
Codec ID : 2000
Duration : 1h 23mn
Bit rate mode : Constant
Bit rate : 224 Kbps
Channel(s) : 2 channels
Channel positions : Front: L R
Sampling rate : 44.1 KHz
Bit depth : 16 bits
Compression mode : Lossy
Stream size : 125 MiB (13%)
Alignment : Aligned on interleaves
Interleave, duration : 40 ms (1.00 video frame

[/code]

Screens:
http://img191.imageshack.us/img191/6588/37763250.png

http://img594.imageshack.us/img594/7049/98301898.png

http://img638.imageshack.us/img638/9067/80445267.png

http://img823.imageshack.us/img823/3144/68008736.png

http://img546.imageshack.us/img546/1163/22361238.png

http://img850.imageshack.us/img850/6805/46699771.png

Related torrents

Torrent NameAddedSizeSeedLeechHealth
1 Year+ - in Movies2.07 GB54
1 Year+ - in Movies2.07 GB449
1 Year+ - in Movies2.07 GB124
1 Year+ - in Movies1.41 GB7165
1 Year+ - in Movies1.41 GB164106

Comments (0 Comments)




Please login or create a FREE account to post comments

Latest Searches

| playmaker unity 1 8 3 | parasyte let me hear | breaking bad season 1 1080p joy | guns and roses t and t | DadCrush Audrey Charlize | Android game Hitman | f u very very much | sudais al quran | daughter 2015 subs | like a camel |