Quick Browse
Movies
TV shows
Music
Games
Applications
Anime
Other
Facebook
Advertising

Friends
Torrent Download
Movie4u
1337x.to
Torrent Downloads




Verified torrent Chronicle 2012 DVDRip-PA[legendET]


    Seeders : 2      Leechers : 3
Hash :CFF317FD9C5F84A406430C4C778D98CC50459A45
Added :1 Year+ by robyrsVerified torrent uploader in Movies
Size :1.07 GB
Stream :WATCH ONLINE @ Movie4u


Chronicle 2012 DVDRip-PA[legendET]
Free and Fast Download with Usenet 300GB+ free







Trackers List

Tracker NameLast CheckStatusSeedersLeechers




Torrent File Content (6 files)


Chronicles 2012 DVDRip-PA[legendET]
     Chronicles 2012 DVDRip-PA[legendET].avi -
1.06 GB

     ENGLISH.sub -
4.33 MB

     Torrent downloaded from AhaShare.com.txt -
59 bytes

     Torrent downloaded from Demonoid.me.txt -
46 bytes

     Torrent downloaded from h33t.com.txt -
32 bytes

     Torrent downloaded from Rarbg.com.txt -
33 bytes



Description



http://img853.imageshack.us/img853/8135/posterimage.jpg


Chronicle 2012 DVDRip-PA[legendET]

Three high school friends gain superpowers after making an incredible discovery. Soon, though, they find their lives spinning out of control and their bond tested as they embrace their darker sides.

http://www.imdb.com/title/tt1706593/

http://img441.imageshack.us/img441/6907/image0001aj.jpg


http://img526.imageshack.us/img526/3483/image0002a.jpg


http://img713.imageshack.us/img713/2610/image0003a.jpg


http://img27.imageshack.us/img27/1294/image0004ad.jpg


http://img204.imageshack.us/img204/2752/image0005a.jpg


Source: CrEwSaDe....THX

Format : AVI
Format/Info : Audio Video Interleave
File size : 1.06 GiB
Duration : 1h 35mn
Overall bit rate : 1 694 Kbps
Writing application : Lavf51.12.1
Writing library : VirtualDub build 33848/release

Video
ID : 0
Format : MPEG-4 Visual
Format profile : Advanced [email protected]
Format settings, BVOP : Yes
Format settings, QPel : No
Format settings, GMC : No warppoints
Format settings, Matrix : Default (H.263)
Muxing mode : Packed bitstream
Codec ID : XVID
Codec ID/Hint : XviD
Duration : 1h 35mn
Bit rate : 1 492 Kbps
Width : 720 pixels
Height : 304 pixels
Display aspect ratio : 2.35:1
Frame rate : 25.000 fps
Color space : YUV
Chroma subsampling : 4:2:0
Bit depth : 8 bits
Scan type : Progressive
Bits/(Pixel*Frame) : 0.273
Stream size : 966 GiB (88%)
Writing library : XviD 1.2.1 (UTC 2008-12-04)

Audio
ID : 1
Format : MPEG Audio
Format version : Version 1
Format profile : Layer 3
Mode : Joint stereo
Mode extension : MS Stereo
Codec ID : 55
Codec ID/Hint : MP3
Duration : 1h 35mn
Bit rate mode : Constant
Bit rate : 192 Kbps
Channel(s) : 2 channels
Stream size : 161 MiB (11%)
Alignment : Split accross interleaves
Interleave, duration : 40 ms (1.00 video frame)
Interleave, preload duration : 500 ms
Writing library : LAME3.98.2

Workdone:
Well getting pm's like crazy...some believe it and some dont, but yes we removed the watermark, but only 90% of it. Then we had a choice to blur it or not for the finishing touch. If we didnt litely blur the area you would be able to see the outline of the watermark, so we litely blur it. Last 2 screenshots will show examples. After that was all done, it was a pain to get this file saved in this new program and we had to read up on it. After that was done we insert it into vdub and did our usual, levels, brightness,contrast,and litely ran a smoother.

Audio: untouched

ENJOY THIS FINE RELEASE BY:
INFERNO

Related torrents

Torrent NameAddedSizeSeedLeechHealth
Verified torrent
1 Year+ - in Movies740.58 MB10
3 months ago - in Movies1.92 GB47
3 months ago - in Movies6.63 GB00
Verified torrent
1 Year+ - in Movies754.2 MB10

Comments (0 Comments)




Please login or create a FREE account to post comments

Latest Searches

| Ministry Of Sound Clubbers Guide 2016 2CD 2016 | Buddy Guy Skin Deep | dj greg nice | Source Code 2011 BRRip x264 Dual Audio Eng Hindi | supergirl 1080p s02e07 | Nation of anal domination | Resident Evil 6 PS3 fix | O Dd in denver | Artistworks Rock Guitar Lessons with Paul | bbc proms 13 |