Quick Browse
Movies
TV shows
Music
Games
Applications
Anime
Other
Facebook
Friends
Torrent Download
Free Movies
1337x.to
Torrent Downloads

Verified torrent Chronicle 2012 TS V2 READNFO XViD AC3-26K


    Seeders : 94      Leechers : 34
Hash :5E74F0F4210E293A5EA21B089E0464E133D8EC98
Added :1 Year+ by memory100Verified torrent uploader in Games - Other
Size :901.87 MB
Stream :WATCH ONLINE @ Movie4u


Chronicle 2012 TS V2 READNFO XViD AC3-26K
Anonymous and Direct Download 300GB+ free








Trackers List

Tracker NameLast CheckStatusSeedersLeechers




Torrent File Content (8 files)


Chronicle 2012 TS V2 READNFO XViD AC3-26K
     Chronicle 2012 TS V2 READNFO XViD AC3-26K.avi -
882.04 MB

     Chronicle 2012 TS V2 READNFO XViD AC3-26K.nfo -
3.17 KB

     HDSceneRG.txt -
115 bytes

     Torrent downloaded from Demonoid.me.txt -
46 bytes

     Torrent downloaded from rarbg.com.txt.txt -
0 bytes

     att-networks.com.txt -
39 bytes

     sample.avi -
19.83 MB

     sceneunderground.org.txt -
77 bytes



Description



http://i.imgur.com/OyPgS.jpg

[code]
Chronicle 2012 TS V2 READNFO XViD AC3-26K

Imdb:
http://www.imdb.com/title/tt1706593/

Plot:
Three high school friends gain superpowers after making an incredible discovery. Soon, though, they find their lives spinning out of control and their bond tested as they embrace their darker sides.
Sources:
VIDEO-NoZGT the NEW SOURCE :p
AUDIO-MiSTERE THNXS BRO!

Notes:
AUDIO IS FULL LINE!!! THAT IS ALL :p :) ENJOY...!
encoded the video and added a few filters to it to make it look nice :P
so take it or leave it :)

Greetz:
Xtreme Encode|FYA|ILLUMANTI|CM8|RX|VISION|HDSCENE|NIGHTMAREZ|xTriLL|DTRG|CRYS|REMIXHD|BIDA|RX|REFILL|INSPiRAL|SIC|ZOMBIESZ|HOPE|Anonymous|GooN
To all the people who have helped me :P you know who you are

Anything to offer email us @: [email protected]

Video
ID : 0
Format : MPEG-4 Visual
Format profile : Advanced [email protected]
Format settings, BVOP : 2
Format settings, QPel : No
Format settings, GMC : No warppoints
Format settings, Matrix : Default (H.263)
Codec ID : XVID
Codec ID/Hint : XviD
Duration : 1h 15mn
Bit rate : 1 393 Kbps
Width : 720 pixels
Height : 288 pixels
Display aspect ratio : 2.500
Frame rate : 25.000 fps
Color space : YUV
Chroma subsampling : 4:2:0
Bit depth : 8 bits
Scan type : Progressive
Compression mode : Lossy
Bits/(Pixel*Frame) : 0.269
Stream size : 755 MiB (86%)
Writing library : XviD 64

Audio
ID : 1
Format : AC-3
Format/Info : Audio Coding 3
Mode extension : CM (complete main)
Codec ID : 2000
Duration : 1h 15mn
Source duration : 1h 15mn
Bit rate mode : Constant
Bit rate : 224 Kbps
Channel(s) : 2 channels
Channel positions : Front: L R
Sampling rate : 44.1 KHz
Bit depth : 16 bits
Compression mode : Lossy
Stream size : 121 MiB (14%)
Alignment : Aligned on interleaves
Interleave, duration : 35 ms (0.87 video frame)

[/code]
Screens:
http://i.imgur.com/1foKv.png

http://i.imgur.com/dNYu1.png

http://i.imgur.com/exW5Y.png

http://i.imgur.com/zO2Iz.png

http://i.imgur.com/bVPve.png


http://img851.imageshack.us/img851/5503/26ks.jpg

Thank you smallz for banner!

Related torrents

Torrent NameAddedSizeSeedLeechHealth
Verified torrent
1 Year+ - in Movies1.2 GB10
1 Year+ - in Movies1.99 GB01
Verified torrent
1 Year+ - in Movies1.37 GB87654
1 Year+ - in Movies843.86 MB20
1 Year+ - in Movies1.48 GB165132

Comments (0 Comments)




Please login or create a FREE account to post comments

Latest Searches

| movavi video suite 16 3 2 crack | bareback double anal | killah priest untold story of Walter Reed | Spring Break Fuck Parties Vol 9 2017 Web DL Split | rick ross the black album | flordia e | big tits anal 1080 | The Hangover 2013 720p mgb | Legion S01E07 PROPER 720p HDTV x264 FLEET | version 2 fast and furious |