Quick Browse
Movies
TV shows
Music
Games
Applications
Anime
Other
Facebook
Advertising

Friends
Torrent Download
Movie4u
1337x.to
Torrent Downloads




Verified torrent Chronicle 2012 TS XViD AC3-26K


    Seeders : 0      Leechers : 0
Hash :60C55FD73DBB3DFC36C0B83255859609D695AE36
Added :1 Year+ by memory100Verified torrent uploader in Movies
Size :1.08 GB
Stream :WATCH ONLINE @ Movie4u


Chronicle 2012 TS XViD AC3-26K
Free and Fast Download with Usenet 300GB+ free







Trackers List

Tracker NameLast CheckStatusSeedersLeechers




Torrent File Content (7 files)


Chronicle 2012 TS XViD AC3-26K
     Chronicle 2012 TS XViD AC3-26K.avi -
1.05 GB

     Chronicle 2012 TS XViD AC3-26K.nfo -
3.3 KB

     HDSceneRG.txt -
115 bytes

     Torrent downloaded from Demonoid.me.txt -
46 bytes

     att-networks.com.txt -
39 bytes

     sample.avi -
30.45 MB

     sceneunderground.org.txt -
77 bytes



Description



http://img404.imageshack.us/img404/9210/chroniclef.jpg

[code]
Chronicle 2012 TS XViD AC3-26K

Imdb:
http://www.imdb.com/title/tt1430607/

Plot:
Three high school friends gain superpowers after making an incredible discovery. Soon, though, they

find their lives spinning out of control and their bond tested as they embrace their darker sides.

Sources:
VIDEO-LUMX1
AUDIO-MISTERE
THNXS TO BOTH!

Notes:
video is okay bit dark !... the audio is great :) so enjoy!
added a few filters to the video to make it look nice so take it or leave it !

Greetz:
Xtreme

Encode|FYA|ILLUMANTI|CM8|RX|VISION|HDSCENE|NIGHTMAREZ|xTriLL|DTRG|CRYS|REMIXHD|BIDA|RX|REFILL|INSPiRAL

|SIC|ZOMBIESZ|HOPE|Anonymous|GooN
To all the people who have helped me :P you know who you are

Anything to offer email us @: [email protected]

Video
ID : 0
Format : MPEG-4 Visual
Format profile : Advanced [email protected]
Format settings, BVOP : 2
Format settings, QPel : No
Format settings, GMC : No warppoints
Format settings, Matrix : Default (H.263)
Codec ID : XVID
Codec ID/Hint : XviD
Duration : 1h 15mn
Bit rate : 1 797 Kbps
Width : 720 pixels
Height : 304 pixels
Display aspect ratio : 2.35:1
Frame rate : 25.000 fps
Color space : YUV
Chroma subsampling : 4:2:0
Bit depth : 8 bits
Scan type : Progressive
Compression mode : Lossy
Bits/(Pixel*Frame) : 0.328
Stream size : 969 MiB (90%)
Writing library : XviD 63

Audio
ID : 1
Format : AC-3
Format/Info : Audio Coding 3
Mode extension : CM (complete main)
Codec ID : 2000
Duration : 1h 15mn
Bit rate mode : Constant
Bit rate : 192 Kbps
Channel(s) : 2 channels
Channel positions : Front: L R
Sampling rate : 44.1 KHz
Bit depth : 16 bits
Compression mode : Lossy
Stream size : 104 MiB (10%)
Alignment : Aligned on interleaves
Interleave, duration : 35 ms (0.87 video frame)


[/code]
Screens:
http://img263.imageshack.us/img263/5913/vlcsnap2012020600h41m12.png

http://img859.imageshack.us/img859/6303/vlcsnap2012020600h41m06.png

http://img72.imageshack.us/img72/6232/vlcsnap2012020600h40m50.png

http://img59.imageshack.us/img59/7046/vlcsnap2012020600h40m46.png

Alternative screens:
http://www.hotimg.com/image/7enxM4z
http://dippic.com/q8t3s32o0wjf
http://imgdepot.org/show/20120206/2/231706_vlcsnap_2012_02_06_00h41m06s180.png
http://www.imageporter.com/jm8b5qmsdi4n/vlcsnap-2012-02-06-00h41m12s2.png.html

http://img851.imageshack.us/img851/5503/26ks.jpg

Thank you smallz for banner!

Related torrents

Torrent NameAddedSizeSeedLeechHealth
7 months ago - in Movies1.08 GB00
1 Year+ - in Movies1.34 GB23
1 Year+ - in Movies1.26 GB03
1 Year+ - in Movies1.26 GB159
Verified torrent
1 Year+ - in Movies1.26 GB527468

Comments (0 Comments)




Please login or create a FREE account to post comments

Latest Searches

| married to medicine houston s01e05 | sativa banks | blumenmadchen | ben hur bluray 1080p 1959 | competition japan | z stefani insufferable | Sal k | GRID 2 MULTI XBOX360 Region Free XDG3 | Pop y electro | cookbook cook |