Quick Browse
Movies
TV shows
Music
Games
Applications
Anime
Other
Facebook
Friends
Torrent Download
Movie4u
1337x.to
Torrent Downloads

Circle Of Eight - 2009 - DVDRip - Xvid-TA


    Seeders : 0      Leechers : 0
Hash :9AC4FB4F3B347EFC52629368CEC4039F7E8F5A30
Added :1 Year+ in Movies
Size :735.19 MB
Stream :WATCH ONLINE @ Movie4u


Circle Of Eight - 2009 - DVDRip - Xvid-TA
Anonymous and Direct Download 300GB+ free








Trackers List

Tracker NameLast CheckStatusSeedersLeechers




Torrent File Content (3 files)


Circle.Of.Eight.2009.DVDRip.Xvid-TA
     Circle.Of.Eight.2009.DVDRip.Xvid-TA.Sample.avi -
17.01 MB

     Circle.Of.Eight.2009.DVDRip.Xvid-TA.avi -
717.9 MB

     poster.png -
289.25 KB



Description



Description

Complete name : Circle.Of.Eight.2009.DVDRip.Xvid.TA.avi
Format : AVI
Format/Info : Audio Video Interleave
File size : 718 MiB
Duration : 1h 23mn
Overall bit rate : 1 198 Kbps
Writing library : VirtualDub build 32661/release

Video
ID : 0
Format : MPEG-4 Visual
Format profile : [email protected]
Format settings, BVOP : Yes
Format settings, QPel : No
Format settings, GMC : No warppoints
Format settings, Matrix : Custom
Muxing mode : Packed bitstream
Codec ID : XVID
Codec ID/Hint : XviD
Duration : 1h 23mn
Bit rate : 1 027 Kbps
Width : 718 pixels
Height : 396 pixels
Display aspect ratio : 16:9
Frame rate : 29.970 fps
Resolution : 24 bits
Colorimetry : 4:2:0
Scan type : Progressive
Bits/(Pixel*Frame) : 0.120
Stream size : 615 MiB (86%)
Writing library : XviD 1.2.1 (UTC 2008-12-04)

Audio
ID : 1
Format : MPEG Audio
Format version : Version 1
Format profile : Layer 3
Codec ID : 55
Codec ID/Hint : MP3
Duration : 1h 23mn
Bit rate mode : Constant
Bit rate : 160 Kbps
Channel(s) : 2 channels
Sampling rate : 44.1 KHz
Resolution : 16 bits
Stream size : 95.8 MiB (13%)
Alignment : Split accross interleaves
Interleave, duration : 33 ms (1.00 video frame)
Interleave, preload duration : 500 ms
Writing library : LAME3.97

Cast:
John Bishop ... Ed
Kirk Bovill ... Cop #1
Ryan Doom ... Evan
Austin Highsmith ... Jessica
Spencer Hill ... Fireman #1
Jesse Johnson ... Damon
Darren Keefe ... Fireman #1
Josh Kelly ... Bale
Katia Kieling ... Laundry room Girl
Katie Lowes ... Elaine
Peter Nikkos ... Fire Lieutenant Merritt
Tom Ohmer ... Fire Captain
Khary Payton ... Cop #2
DJ Qualls ... Randall
Henderson Wade ... EMT
Natashia Williams ... India


Plot:
Jessica moves into a loft on the eighth floor of a Los Angeles apartment building called The Dante. The other tenants all seem friendly at first, but when she starts witnessing horrible deaths, she must team up with her neighbor Evan (Doom) to solve the mystery -- and uncover her own connection to the place.

Related torrents

Torrent NameAddedSizeSeedLeechHealth
1 Year+ - in Movies734.91 MB7555
8 months ago - in Movies1.82 GB00
8 months ago - in Movies846.53 MB3846
1 Year+ - in Movies649.13 MB00
1 Year+ - in Movies2.66 GB20

Comments (0 Comments)




Please login or create a FREE account to post comments

Latest Searches

| all music 90s | Beauty and the Beast Final | What on Earth S03E19 | to love honor | Snowden 2016 ita | bbc grand tours of scotland series 1 | Radiohead Drill | tour of london part 1 brazzers | Axisaxis | zootopia 2016 |