Quick Browse
Movies
TV shows
Music
Games
Applications
Anime
Other

Donate and Support

Friends
Torrents.me
Torrent Download
Free Movies
1337x
RARBG
Torrent Downloads

Verified torrent Clash of the Titans (2010) DVDRip XviD-MAXSPEED


    Seeders : 0      Leechers : 0
Hash :A2D24EB63312D63359D02AF09817FC1703C28C4A
Added :1 Year+ by piratepediaVerified torrent uploader in Movies
Size :1.27 GB
Stream :Watch Full Movies Online @ Movie4u
Share :


Clash of the Titans (2010) DVDRip XviD-MAXSPEED
Anonymous and Direct Download 300GB+ free







Warning! Do not Download Torrents Without a VPN!
Your IP Address is .   And Location is
Your Internet Provider and Government can track your torrent Activity!  Hide your IP ADDRESS with a VPN!
We Strongly Recommend Using SpyOFF Torrent VPN to Anonymize your Torrenting. It's FREE For 15 Days!

Note :

Please Update (Trackers Info) Before Downloading Torrents to See Updated Seeders And Leechers for Batter Download Speed.

Trackers List

Tracker NameLast CheckStatusSeedersLeechers
http://tracker.trackerfix.com/announce25 days agosuccess00
udp://9.rarbg.com:2710/announce25 days agosuccess00
udp://tracker.coppersurfer.tk:8025 days agosuccess00
udp://ipv4.tracker.harry.lu:80/announce25 days agosuccess00




Torrent File Content (7 files)


Clash of the Titans (2010) DVDRip XviD-MAXSPEED
     Clash of the Titans (2010) DVDRip XviD-MAXSPEED www.torentz.3xforum.ro.avi -
1.27 GB

     screencaps.jpg -
208 KB

     Clash of the Titans (2010) DVDRip XviD-MAXSPEED.nfo -
2.52 KB

     Torrent downloaded from Demonoid.com.txt -
47 bytes

     Torrent verified and recommended by vertor.com.txt -
46 bytes

     Torrent downloaded from Rarbg.com.txt -
33 bytes

     tracked_by_h33t_com.txt -
23 bytes



Description



http://i26.tinypic.com/35i8va9.jpg


Screens:

http://i31.tinypic.com/2hqqkg4.jpg

http://i31.tinypic.com/2uzx9ax.jpg

http://i29.tinypic.com/wgyijk.jpg

http://i28.tinypic.com/6i8bd1.jpg

http://i32.tinypic.com/11goaoy.jpg


Alternative:

[code]http://www.postimg.com/image/18000/17569.jpg
http://www.postimg.com/image/18000/17570.jpg
http://www.postimg.com/image/18000/17571.jpg
http://www.postimg.com/image/18000/17572.jpg
http://www.postimg.com/image/18000/17573.jpg[/code]

[code]Format : AVI
Format/Info : Audio Video Interleave
Format profile : OpenDML
File size : 1.26 GiB
Duration : 1h 46mn
Overall bit rate : 1 707 Kbps
Writing application : VirtualDubMod 1.5.10.2 (build 2542/release)
Writing library : VirtualDubMod build 2542/release
Original source form : MAX TORRENTZ
Copyright : SIGISMUNT

Video
ID : 0
Format : MPEG-4 Visual
Format profile : [email protected]
Format settings, BVOP : Yes
Format settings, QPel : No
Format settings, GMC : No warppoints
Format settings, Matrix : Custom
Muxing mode : Packed bitstream
Codec ID : XVID
Codec ID/Hint : XviD
Duration : 1h 46mn
Bit rate : 1 512 Kbps
Width : 720 pixels
Height : 304 pixels
Display aspect ratio : 2.35:1
Frame rate : 23.976 fps
Resolution : 24 bits
Colorimetry : 4:2:0
Scan type : Progressive
Bits/(Pixel*Frame) : 0.288
Stream size : 1.12 GiB (89%)
Writing library : XviD 1.2.1 (UTC 2008-12-04)

Audio
ID : 1
Format : MPEG Audio
Format version : Version 1
Format profile : Layer 3
Codec ID : 55
Codec ID/Hint : MP3
Duration : 1h 46mn
Bit rate mode : Constant
Bit rate : 192 Kbps
Channel(s) : 2 channels
Sampling rate : 48.0 KHz
Resolution : 16 bits
Stream size : 146 MiB (11%)
Alignment : Aligned on interleaves
Interleave, duration : 500 ms

Source: 720p Bluray

How To Get Your Maxspeed (uTorrent)

Torrent Client - Preferences - Bandwidth - Number of connections - Set aprox. 500 for each
Torrent Client - Preferences - BiTorrent - Protocol Encryption - Forced
Bandwidth Allocation - High (Set download/upload limit - Unlimited)
Stop Other Active Torrents - Start downloading and wait for connections
Enjoy and Seed for at least 1:1 ratio. Don't forget to say thanks/leave reviews.
Also please spread the link where you found this torrent to your friends.
Don't trust IMDb robot or bad ratings,always watch some trailers first.
Ignore online streaming spam sites and fake stupid uploads/comments.
If you need translation subs visit some subtitles sites.
Recommended movie player VLC PLAYER.[/code]

Related torrents

Torrent NameAddedSizeSeedLeechHealth
26 days ago - in Movies1.8 GB00
27 days ago - in Other2.02 GB00
27 days ago - in Other1.28 GB00
28 days ago - in Other7.95 GB1262
2 months ago - in Movies1.59 GB00

Comments (0 Comments)




Please login or create a FREE account to post comments

Latest Searches

| HorribleSubs Ookami Shoujo to Kuro Ouji 04 1080p | loverboy 1982 | HorribleSubs Ookami Shoujo to Kuro Ouji 03 1080p | kesha learn to let go mp3 | wyp | The Jeff Healey Band House on Fire Demos Rarities | Last Week Tonight with John Oliver S04E01 x265 | Web Comic | HorribleSubs Ookami Shoujo to Kuro Ouji 01 1080p | impact 2017 07 27 |