Quick Browse
Movies
TV shows
Music
Games
Applications
Anime
Other

Donate and Support

Friends
Torrents.me
Torrent Download
Free Movies
1337x
RARBG
Torrent Downloads

Claws S01E06 720p HDTV x264-AVS


    Seeders : 7      Leechers : 3
Hash :E753E739A51AD54AA7CCA99916DB2D8D29776DD5
Added :2 months ago in TV shows
Size :1.29 GB
Stream :Watch Full Movies Online @ Movie4u
Share :


Claws S01E06 720p HDTV x264-AVS
Anonymous and free Direct Download







Warning! Do not Download Torrents Without a VPN!
Your IP Address is .   And Location is
Your Internet Provider and Government can track your torrent Activity!  Hide your IP ADDRESS with a VPN!
We Strongly Recommend Using SpyOFF Torrent VPN to Anonymize your Torrenting. It's FREE For 15 Days!

Note :

Please Update (Trackers Info) Before Downloading Torrents to See Updated Seeders And Leechers for Batter Download Speed.

Trackers List

Tracker NameLast CheckStatusSeedersLeechers
udp://tracker.coppersurfer.tk:6969/announce2 months agosuccess73
udp://tracker.pirateparty.gr:6969/announce2 months agosuccess73
udp://eddie4.nl:6969/announce2 months agosuccess63
udp://p4p.arenabg.ch:1337/announce2 months agosuccess61
udp://9.rarbg.to:2710/announce2 months agosuccess62
udp://tracker.opentrackr.org:1337/announce2 months agosuccess61
http://tracker.opentrackr.org:1337/announce2 months agosuccess61
udp://p4p.arenabg.com:13372 months agosuccess61
udp://tracker.grepler.com:6969/announce2 months agosuccess61
udp://shadowshq.yi.org:6969/announce2 months agosuccess63
http://tracker.opentrackr.org/announce2 months agosuccess61
udp://tracker.zer0day.to:1337/announce2 months agosuccess62
udp://tracker.leechers-paradise.org:6969/announce2 months agosuccess63
udp://public.popcorn-tracker.org:6969/announce2 months agosuccess61
udp://9.rarbg.me:2710/announce2 months agosuccess62
udp://ipv4.tracker.harry.lu:80/announce2 months agosuccess52
udp://tracker.internetwarriors.net:1337/announce2 months agosuccess31
http://tracker.trackerfix.com/announce2 months agosuccess00
udp://tracker.trackerfix.com:80/announce2 months agosuccess00




Torrent File Content (2 files)


Claws.S01E06.720p.HDTV.x264-AVS
     Claws.S01E06.720p.HDTV.x264-AVS.mkv -
1.29 GB

     claws.s01e06.720p.hdtv.x264-avs.nfo -
53 bytes



Description



Claws.S01E06.720p.HDTV.x264-AVS



Complete name : Claws.S01E06.720p.HDTV.x264-AVS.mkv
Format : Matroska
Format version : Version 4 / Version 2
File size : 1.29 GiB
Duration : 47 min 50 s
Overall bit rate : 3 855 kb/s
Encoded date : UTC 2017-07-17 01:59:12
Writing application : FastLE v3.0.0 - AVS
Writing library : libx264 + libebml + libmatroska + libfastrar

Video
ID : 1
Format : AVC
Format/Info : Advanced Video Codec
Format profile : [email protected]/* */
Format settings, CABAC : Yes
Format settings, ReFrames : 5 frames
Codec ID : V_MPEG4/ISO/AVC
Duration : 47 min 50 s
Bit rate : 3 330 kb/s
Width : 1 280 pixels
Height : 720 pixels
Display aspect ratio : 16:9
Frame rate mode : Constant
Frame rate : 23.976 (24000/1001) FPS
Color space : YUV
Chroma subsampling : 4:2:0
Bit depth : 8 bits
Scan type : Progressive
Bits/(Pixel*Frame) : 0.151
Stream size : 1.11 GiB (86%)
Writing library : x264 core 150 r2833 df79067
Encoding settings : cabac=1 / ref=5 / deblock=1:0:0 / analyse=0x3:0x113 / me=hex / subme=8 / psy=1 / psy_rd=1.00:0.00 / mixed_ref=1 / me_range=16 / chroma_me=1 / trellis=2 / 8x8dct=1 / cqm=0 / deadzone=21,11 / fast_pskip=1 / chroma_qp_offset=-2 / threads=22 / lookahead_threads=3 / sliced_threads=0 / nr=0 / decimate=1 / interlaced=0 / bluray_compat=0 / constrained_intra=0 / bframes=3 / b_pyramid=2 / b_adapt=1 / b_bias=0 / direct=3 / weightb=1 / open_gop=0 / weightp=2 / keyint=250 / keyint_min=23 / scenecut=40 / intra_refresh=0 / rc_lookahead=50 / rc=crf / mbtree=1 / crf=18.0 / qcomp=0.60 / qpmin=0 / qpmax=69 / qpstep=4 / ip_ratio=1.40 / aq=1:1.00
Default : Yes
Forced : No
Color range : Limited
Matrix coefficients : BT.709

Audio
ID : 2
Format : AC-3
Format/Info : Audio Coding 3
Format settings, Endianness : Big
Codec ID : A_AC3
Duration : 47 min 50 s
Bit rate mode : Constant
Bit rate : 448 kb/s
Channel(s) : 6 channels
Channel positions : Front: L C R, Side: L R, LFE
Sampling rate : 48.0 kHz
Frame rate : 31.250 FPS (1536 spf)
Bit depth : 16 bits
Compression mode : Lossy
Stream size : 153 MiB (12%)
Service kind : Complete Main
Default : Yes
Forced : No






Click To View Screenshot

Click To View Screenshot

Click To View Screenshot


Related torrents

Torrent NameAddedSizeSeedLeechHealth
2 months ago - in TV shows1.29 GB3215
2 months ago - in Other1.16 GB00
2 months ago - in TV shows1.16 GB111
2 months ago - in Other1.16 GB00
2 months ago - in TV shows1.17 GB00

Comments (0 Comments)




Please login or create a FREE account to post comments

Latest Searches

| the code game | Blacked Jynx Maze I Became My Boss s Mistress 06 12 2016 rq 1k mp4 | VA Urban Dance Trance | samples techno | BrazzersExxtra Ariana Marie Zoe Clark School Slut | ettv fum catch fire | The Walking Dead S04E03 Isolation HDTV XviD ASAP ettv FR avi | summer 2016 party | FUNDAMENTALS OF GENERAL ORGANIC CHEMISTRY | star shine by |