Quick Browse
Movies
TV shows
Music
Games
Applications
Anime
Other
Facebook
Advertising

Friends
Torrent Download
Movie4u
1337x.to
Torrent Downloads




Verified torrent Cloud Atlas [2012] RC BDRip x264 AAC-V3nom


    Seeders : 1      Leechers : 122
Hash :657E60500DCF0451042193A3827C8E397815B3BB
Added :1 Year+ by sebastianUb3rVerified torrent uploader in Movies
Size :352.03 MB
Stream :WATCH ONLINE @ Movie4u


Cloud Atlas [2012] RC BDRip x264 AAC-V3nom
Free and Fast Download with Usenet 300GB+ free







Trackers List

Tracker NameLast CheckStatusSeedersLeechers




Torrent File Content (12 files)


Cloud Atlas [2012] RC BDRip x264 AAC-V3nom
    Sub
          Cloud Atlas [2012] RC BDRip x264 AAC-V3nom [Cro].srt -
118.45 KB

    Torrent Download Site's
          Torrent downloaded from tracker.Btarena.org.txt -
43 bytes

          Torrent downloaded from Extratorrent.com.txt -
40 bytes

          Torrent Downloaded from Limetorrents.com.txt -
40 bytes

          Torrent downloaded from Thepiratebay.se.txt -
39 bytes

          Torrent downloaded from 1337x.org.txt -
33 bytes

          Torrent downloaded from Kat.ph.txt -
30 bytes

     Cloud Atlas [2012] RC BDRip x264 AAC-V3nom.m4v -
349.53 MB

     sample.m4v -
2.1 MB

     V3nom.gif -
148.22 KB

     Cloud Atlas [2012] RC BDRip x264 AAC-V3nom.jpg -
135.5 KB

     Torrent Uploaded by V3nom.txt -
25 bytes



Description



http://img341.imageshack.us/img341/9676/cloudatlas.jpg


[size=200][color=black]PLOT[/color][/size]

[code]An exploration of how the actions of individual lives impact
one another in the past, present and future, as one soul is shaped
from a killer into a hero, and an act of kindness ripples across
centuries to inspire a revolution.[/code]

[size=200][color=black]IMDB[/color][/size]

[code]http://www.imdb.com/title/tt1371111/[/code]

[size=200][color=black]MOVIE INFO[/color][/size]

[code]Cloud Atlas [2012] RC BDRip x264 AAC-V3nom

Format : MPEG-4
Format profile : Base Media / Version 2
Codec ID : mp42
File size : 350 MiB
Duration : 2h 52mn
Overall bit rate mode : Variable
Overall bit rate : 284 Kbps
Encoded date : UTC 2012-12-22 14:05:23
Tagged date : UTC 2012-12-22 14:49:44

Video
ID : 1
Format : AVC
Format/Info : Advanced Video Codec
Format profile : [email protected]
Format settings, CABAC : Yes
Format settings, ReFrames : 4 frames
Codec ID : avc1
Codec ID/Info : Advanced Video Coding
Duration : 2h 52mn
Bit rate mode : Variable
Bit rate : 152 Kbps
Width : 656 pixels
Height : 272 pixels
Display aspect ratio : 2.40:1
Frame rate mode : Variable
Frame rate : 23.976 fps
Minimum frame rate : 23.974 fps
Maximum frame rate : 90 000.000 fps
Color space : YUV
Chroma subsampling : 4:2:0
Bit depth : 8 bits
Scan type : Progressive
Bits/(Pixel*Frame) : 0.036
Stream size : 186 MiB (53%)
Writing library : x264 core 112

Audio
ID : 2
Format : AAC
Format/Info : Advanced Audio Codec
Format profile : LC
Codec ID : 40
Duration : 2h 52mn
Bit rate mode : Variable
Bit rate : 128 Kbps
Maximum bit rate : 248 Kbps
Channel(s) : 2 channels
Channel positions : Front: L R
Sampling rate : 48.0 KHz
Compression mode : Lossy
Delay relative to video : 83ms
Stream size : 158 MiB (45%)
Encoded date : UTC 2012-12-22 14:05:23
Tagged date : UTC 2012-12-22 14:49:36[/code]

[size=200][color=black]SOURCE[/color][/size]

[code]Cloud.Atlas.2012.RC.BDRip.STUDIO.AUDIO.XviD-S4A(Thanks)[/code]

[size=200][color=black]SCREENSHOTS[/color][/size]

http://img838.imageshack.us/img838/6441/cloudatlas2012rcbdripx2.jpg


http://kastatic.com/i2/users/133df62bbf28e62494bb17fe11078f1a.gif
http://kastatic.com/i2/users/133df62bbf28e62494bb17fe11078f1a.gif

Related torrents

Torrent NameAddedSizeSeedLeechHealth
1 Year+ - in Movies2.25 GB09
1 Year+ - in Applications700.72 MB10
1 Year+ - in Movies649.98 MB66
1 Year+ - in Movies2.52 GB131
1 Year+ - in Movies2.25 GB011

Comments (0 Comments)




Please login or create a FREE account to post comments

Latest Searches

| Suicide Squad Extended 2016 ita | grey book mobi | 1080p dts trolls | the flash s03e09 x265 mkv | bad karma 2011 dvdrip nl subs divx nltoppers | The Flash S03E09 HDTV | transformers 1 in dual audio | k novia | closed remix | sharing siblings |