Quick Browse
Movies
TV shows
Music
Games
Applications
Anime
Other

Donate and Support

Friends
Torrents.me
Torrent Download
Free Movies
1337x
RARBG
Torrent Downloads

Verified torrent Cloud Atlas 2012 480p RC BDRiP LiNE XVID-26K


    Seeders : 1      Leechers : 0
Hash :C083B52A53AA8CBF47A95882B07A657650CF46E5
Added :1 Year+ by memory100Verified torrent uploader in Movies
Size :1.46 GB
Stream :Watch Full Movies Online @ Movie4u
Share :


Cloud Atlas 2012 480p RC BDRiP LiNE XVID-26K
Anonymous and free Direct Download







Warning! Do not Download Torrents Without a VPN!
Your IP Address is .   And Location is
Your Internet Provider and Government can track your torrent Activity!  Hide your IP ADDRESS with a VPN!
We Strongly Recommend Using SpyOFF Torrent VPN to Anonymize your Torrenting. It's FREE For 15 Days!

Note :

Please Update (Trackers Info) Before Downloading Torrents to See Updated Seeders And Leechers for Batter Download Speed.

Trackers List

Tracker NameLast CheckStatusSeedersLeechers




Torrent File Content (7 files)


Cloud.Atlas.2012.480p.RC.BDRiP.LiNE.XVID-26K
     Cloud.Atlas.2012.480p.RC.BDRiP.LiNE.XVID-26K.avi -
1.43 GB

     sAMPLE.avi -
31.1 MB

     Cloud.Atlas.2012.480p.RC.BDRiP.LiNE.XVID-26.nfo -
9.77 KB

     Meggafast.com.txt -
124 bytes

     YouTube Latest Releases And Archive.txt -
86 bytes

     Sceneunderground.org.txt -
77 bytes

     Torrent downloaded from rarbg.com.txt.txt -
0 bytes



Description



http://imageshack.us/a/img202/8770/cloudco.jpg

[code]
Cloud.Atlas.2012.480p.RC.BDRiP.LiNE.XVID-26K

http://www.imdb.com/title/tt1371111/

Plot:
An exploration of how the actions of individual lives impact one another in the past, present and future, as one soul is

shaped from a killer into a hero, and an act of kindness ripples across centuries to inspire a revolution.

Sources - Audio-LINE....Thanks :P
VIDEO-RUSSIAN BD FILES.....Thanks :P
Subs-N/A....
Video
ID : 0
Format : MPEG-4 Visual
Format profile : Advanced [email protected]
Format settings, BVOP : 2
Format settings, QPel : No
Format settings, GMC : No warppoints
Format settings, Matrix : Default (H.263)
Codec ID : XVID
Codec ID/Hint : XviD
Duration : 2h 52mn
Bit rate : 1 022 Kbps
Width : 640 pixels
Height : 272 pixels
Display aspect ratio : 2.35:1
Frame rate : 23.976 fps
Color space : YUV
Chroma subsampling : 4:2:0
Bit depth : 8 bits
Scan type : Progressive
Compression mode : Lossy
Bits/(Pixel*Frame) : 0.245
Stream size : 1.23 GiB (86%)
Writing library : XviD 1.2.1 (UTC 2008-12-04)

Audio
ID : 1
Format : MPEG Audio
Codec ID : 55
Codec ID/Hint : MP3
Duration : 2h 52mn
Bit rate : 160 Kbps
Channel(s) : 2 channels
Sampling rate : 44.1 KHz
Compression mode : Lossy
Stream size : 197 MiB (13%)
Alignment : Split accross interleaves
Interleave, duration : 13106 ms (314.22 video frames)

Notes -
ENJOY .. LINE AUDIO MUXED OVER!.. THNXS FOR THE LINE YOU KNOW WHO U ARE BRO

Related torrents

Torrent NameAddedSizeSeedLeechHealth
1 Year+ - in Movies1.46 GB00
1 Year+ - in Movies1.46 GB7523
1 Year+ - in Movies1.09 GB00
1 Year+ - in Movies1.13 GB00
4 days ago - in Other4.33 GB00

Comments (0 Comments)




Please login or create a FREE account to post comments

Latest Searches

| the stranglers best | the beatles happy just to dance with you | The Neanderthal | Vince Gill go rest on that mountain | senti chi parla 3 | Carrie 1999 avi | Wolf S03E16 HDTV x264 2HD | FOREIGNER THE VERY BEST OF FLAC | the assault 2008 | Lost Season 2 Dvd Rip |