Quick Browse
Movies
TV shows
Music
Games
Applications
Anime
Other
Facebook
Advertising

Friends
Torrent Download
Movie4u
1337x.to
Torrent Downloads




Verified torrent Cloud Atlas 2012 480p RC BDRiP LiNE XVID-26K


    Seeders : 1      Leechers : 0
Hash :C083B52A53AA8CBF47A95882B07A657650CF46E5
Added :1 Year+ by memory100Verified torrent uploader in Movies
Size :1.46 GB
Stream :WATCH ONLINE @ Movie4u


Cloud Atlas 2012 480p RC BDRiP LiNE XVID-26K
Free and Fast Download with Usenet 300GB+ free







Trackers List

Tracker NameLast CheckStatusSeedersLeechers




Torrent File Content (7 files)


Cloud.Atlas.2012.480p.RC.BDRiP.LiNE.XVID-26K
     Cloud.Atlas.2012.480p.RC.BDRiP.LiNE.XVID-26K.avi -
1.43 GB

     sAMPLE.avi -
31.1 MB

     Cloud.Atlas.2012.480p.RC.BDRiP.LiNE.XVID-26.nfo -
9.77 KB

     Meggafast.com.txt -
124 bytes

     YouTube Latest Releases And Archive.txt -
86 bytes

     Sceneunderground.org.txt -
77 bytes

     Torrent downloaded from rarbg.com.txt.txt -
0 bytes



Description



http://imageshack.us/a/img202/8770/cloudco.jpg

[code]
Cloud.Atlas.2012.480p.RC.BDRiP.LiNE.XVID-26K

http://www.imdb.com/title/tt1371111/

Plot:
An exploration of how the actions of individual lives impact one another in the past, present and future, as one soul is

shaped from a killer into a hero, and an act of kindness ripples across centuries to inspire a revolution.

Sources - Audio-LINE....Thanks :P
VIDEO-RUSSIAN BD FILES.....Thanks :P
Subs-N/A....
Video
ID : 0
Format : MPEG-4 Visual
Format profile : Advanced [email protected]
Format settings, BVOP : 2
Format settings, QPel : No
Format settings, GMC : No warppoints
Format settings, Matrix : Default (H.263)
Codec ID : XVID
Codec ID/Hint : XviD
Duration : 2h 52mn
Bit rate : 1 022 Kbps
Width : 640 pixels
Height : 272 pixels
Display aspect ratio : 2.35:1
Frame rate : 23.976 fps
Color space : YUV
Chroma subsampling : 4:2:0
Bit depth : 8 bits
Scan type : Progressive
Compression mode : Lossy
Bits/(Pixel*Frame) : 0.245
Stream size : 1.23 GiB (86%)
Writing library : XviD 1.2.1 (UTC 2008-12-04)

Audio
ID : 1
Format : MPEG Audio
Codec ID : 55
Codec ID/Hint : MP3
Duration : 2h 52mn
Bit rate : 160 Kbps
Channel(s) : 2 channels
Sampling rate : 44.1 KHz
Compression mode : Lossy
Stream size : 197 MiB (13%)
Alignment : Split accross interleaves
Interleave, duration : 13106 ms (314.22 video frames)

Notes -
ENJOY .. LINE AUDIO MUXED OVER!.. THNXS FOR THE LINE YOU KNOW WHO U ARE BRO

Related torrents

Torrent NameAddedSizeSeedLeechHealth
1 Year+ - in Movies1.46 GB3,857418
1 Year+ - in Movies1.46 GB7523
1 Year+ - in Movies1.09 GB00
1 Year+ - in Movies1.13 GB00
1 Year+ - in Movies2.19 GB28

Comments (0 Comments)




Please login or create a FREE account to post comments

Latest Searches

| Nike Chanel | j ooe | The Girl Who Kicked the Hornets Nest 2009 | kalina ryu nuru | Country Christmas dolly parton | Screwed 2011 DVDRip XviD BONE | live free or die hindi | leftovers s02e01 ita | cs6 photoshop 2016 | Finding Carter S02E21 HDTV x264 KILLERSeztv |