Quick Browse
Movies
TV shows
Music
Games
Applications
Anime
Other
Facebook
Advertising

Friends
Torrent Download
Movie4u
1337x.to
Torrent Downloads




Cockles And Mussels - French Film - 2005 - WS - TVRip - XViD - English Subtitles


    Seeders : 2      Leechers : 3

Trackers List

Tracker NameLast CheckStatusSeedersLeechers




Torrent File Content (5 files)


Cockles And Mussels
     Cockles And Mussels.avi -
701.75 MB

     Cockles And Mussels_1.jpg -
32.62 KB

     Cockles And Mussels.jpg -
31.25 KB

     Cockles And Mussels_3.jpg -
30.65 KB

     Cockles And Mussels_2.jpg -
24.2 KB



Description



General
Complete name : Cockles And Mussels.avi
Format : AVI
Format/Info : Audio Video Interleave
File size : 702 MiB
Duration : 1h 29mn
Overall bit rate : 1 091 Kbps
Writing application : VirtualDubMod 1.5.4.1 (build 2178/release)
Writing library : VirtualDubMod build 2178/release

Video
ID : 0
Format : MPEG-4 Visual
Format profile : Streaming [email protected]
Format settings, BVOP : Yes
Format settings, QPel : No
Format settings, GMC : No warppoints
Format settings, Matrix : Default (H.263)
Muxing mode : Packed bitstream
Codec ID : XVID
Codec ID/Hint : XviD
Duration : 1h 29mn
Bit rate : 972 Kbps
Width : 720 pixels
Height : 400 pixels
Display aspect ratio : 16/9
Frame rate : 29.970 fps
Resolution : 24 bits
Colorimetry : 4:2:0
Scan type : Progressive
Bits/(Pixel*Frame) : 0.113
Stream size : 625 MiB (89%)
Writing library : XviD 1.2.1 (UTC 2008-12-04)

Audio
ID : 1
Format : MPEG Audio
Format version : Version 1
Format profile : Layer 3
Codec ID : 55
Codec ID/Hint : MP3
Duration : 1h 29mn
Bit rate mode : Variable
Bit rate : 106 Kbps
Nominal bit rate : 128 Kbps
Channel(s) : 2 channels
Sampling rate : 44.1 KHz
Resolution : 16 bits
Stream size : 68.0 MiB (10%)
Alignment : Aligned on interleaves
Interleave, duration : 26 ms (0.78 video frame)
Interleave, preload duration : 509 ms
Writing library : LAME3.98r
Encoding settings : -m j -V 4 -q 2 -lowpass 17 --abr 128

Related torrents

Torrent NameAddedSizeSeedLeechHealth
1 Year+ - in Movies640 MB10
1 Year+ - in TV shows17.84 GB6596
1 Year+ - in Movies2.3 GB00
1 Year+ - in Movies1.37 GB00
1 Year+ - in Movies700.33 MB00

Comments (0 Comments)




Please login or create a FREE account to post comments

Latest Searches

| sexual desires remy | dj nonstop 1 hour | WITHOUT YOU DAVID GUETTA USHER | mx | internal reloaded crack fifa 13 | boy unseen | mackelmore thrift | The Girl Who Kicked the Hornets Nest | what makes you beautiful one direction | Delilah Blue eighteen |