Quick Browse
Movies
TV shows
Music
Games
Applications
Anime
Other
Facebook
Advertising

Friends
Torrent Download
Movie4u
1337x.to
Torrent Downloads




Coldplay, X&Y [Flac][hectorbusinspector[h33t]


    Seeders : 0      Leechers : 0
Hash :9BA53C3217A78386D7488079E5A2442CD871BE94
Added :1 Year+ in Music - Music
Size :416.91 MB
Stream :WATCH ONLINE @ Movie4u


Coldplay, X&Y [Flac][hectorbusinspector[h33t]
Free and Fast Download with Usenet 300GB+ free







Trackers List

Tracker NameLast CheckStatusSeedersLeechers




Torrent File Content (18 files)


Coldplay X&Y Flac
    X&Y (Special Dutch Edition) (CD 1-2)
          001.jpg -
148.3 KB

          14666552[1].jpg -
18.36 KB

          Coldplay - X&Y (Special Dutch Edition) (CD 1-2) - 01. Square One.flac -
33.59 MB

          Coldplay - X&Y (Special Dutch Edition) (CD 1-2) - 02. What If.flac -
31.14 MB

          Coldplay - X&Y (Special Dutch Edition) (CD 1-2) - 03. White Shadows.flac -
39.24 MB

          Coldplay - X&Y (Special Dutch Edition) (CD 1-2) - 04. Fix You.flac -
29.93 MB

          Coldplay - X&Y (Special Dutch Edition) (CD 1-2) - 05. Talk.flac -
35.44 MB

          Coldplay - X&Y (Special Dutch Edition) (CD 1-2) - 06. X&Y.flac -
30.83 MB

          Coldplay - X&Y (Special Dutch Edition) (CD 1-2) - 07. Speed Of Sound.flac -
32.01 MB

          Coldplay - X&Y (Special Dutch Edition) (CD 1-2) - 08. A Message.flac -
32.74 MB

          Coldplay - X&Y (Special Dutch Edition) (CD 1-2) - 09. Low.flac -
40.63 MB

          Coldplay - X&Y (Special Dutch Edition) (CD 1-2) - 10. The Hardest Part.flac -
31.65 MB

          Coldplay - X&Y (Special Dutch Edition) (CD 1-2) - 11. Swallowed In The Sea.flac -
25.68 MB

          Coldplay - X&Y (Special Dutch Edition) (CD 1-2) - 12. Twisted Logic.flac -
29.91 MB

          Coldplay - X&Y (Special Dutch Edition) (CD 1-2) - 13. 'til Kingdom Come.flac -
23.93 MB

     introduction to us, we are not pirates.txt -
4.55 KB

     tracked_by_h33t_com.txt -
23 bytes

     x&y info.txtX&Y -
10.23 KB



Description



Coldplay were faced with a difficult choice as they set to work on X&Y. 
They could either follow Radiohead’s
lead and use their enormous success and financial security as a springboard to a brave experimental future--or they could play it safe,
repeat the tricks used on the 16 million-selling A Rush Of Blood To The Head, and consolidate their position as one of the biggest bands in the world.
In truth, despite the Tetris-inspired artwork and presence of teaser track "Talk"--which steals its melody line from electro-futurists Kraftwerk’s gorgeous
"Computer Love"--X&Y is more the latter than the former.
Fans will be delighted by "What If?", a piano elegy that takes flight on strings, and slowly builds towards a Beatles' "A Day In The Life"-style climax,
while the likes of "Fix You" and hidden track "'Til Kingdom Come"--originally written for country hero Johnny Cash--proves Martin’s skill for simple,
affecting songwriting remains intact. One development, however, comes through the judicious inclusion of some rather pleasant synthesiser work--see "White Shadows",
where Martin gently beseeches "Come on love, stay with me" over a gentle Eno-esque keyboard wash.
********************************************************************************************************************************************************
1. Square One

2. What if?

3. White Shadows

4. Fix You

5. Talk

6. X&Y

7. Speed Of Sound

8. A Message

9. Low

10. Hardest Part

11. Swallowed In The Sea

12. Twisted Logic

13. (Hidden track: 'Til Kingdom Come)
********************************************************************************************************************************************************
General
Complete name : ColdplayX&Y (Special Dutch Edition) (CD 1-2)Coldplay - X&Y (Special Dutch Edition) (CD 1-2) - 07. Speed Of Sound.flac
Format : FLAC
Format/Info : Free Lossless Audio Codec
File size : 32.0 MiB
Duration : 4mn 48s
Overall bit rate : 931 Kbps
Album : X&Y (Special Dutch Edition) (CD 1/2)
Track name : Speed Of Sound
Track name/Position : 7
Performer : Coldplay
Genre : Rock / Pop
Recorded date : 2005

Audio
Format : FLAC
Format/Info : Free Lossless Audio Codec
Duration : 4mn 48s
Bit rate mode : Variable
Bit rate : 930 Kbps
Channel(s) : 2 channels
Sampling rate : 44.1 KHz
Resolution : 16 bits
Stream size : 32.0 MiB (100%)
Writing library : libFLAC 1.2.1 (UTC 2007-09-17)

General
Complete name : ColdplayX&Y (Special Dutch Edition) (CD 1-2)Coldplay - X&Y (Special Dutch Edition) (CD 1-2) - 08. A Message.flac
Format : FLAC
Format/Info : Free Lossless Audio Codec
File size : 32.7 MiB
Duration : 4mn 45s
Overall bit rate : 963 Kbps
Album : X&Y (Special Dutch Edition) (CD 1/2)
Track name : A Message
Track name/Position : 8
Performer : Coldplay
Genre : Rock / Pop
Recorded date : 2005

Audio
Format : FLAC
Format/Info : Free Lossless Audio Codec
Duration : 4mn 45s
Bit rate mode : Variable
Bit rate : 962 Kbps
Channel(s) : 2 channels
Sampling rate : 44.1 KHz
Resolution : 16 bits
Stream size : 32.7 MiB (100%)
Writing library : libFLAC 1.2.1 (UTC 2007-09-17)

General
Complete name : ColdplayX&Y (Special Dutch Edition) (CD 1-2)Coldplay - X&Y (Special Dutch Edition) (CD 1-2) - 09. Low.flac
Format : FLAC
Format/Info : Free Lossless Audio Codec
File size : 40.6 MiB
Duration : 5mn 32s
Overall bit rate : 1 026 Kbps
Album : X&Y (Special Dutch Edition) (CD 1/2)
Track name : Low
Track name/Position : 9
Performer : Coldplay
Genre : Rock / Pop
Recorded date : 2005

Audio
Format : FLAC
Format/Info : Free Lossless Audio Codec
Duration : 5mn 32s
Bit rate mode : Variable
Bit rate : 1 026 Kbps
Channel(s) : 2 channels
Sampling rate : 44.1 KHz
Resolution : 16 bits
Stream size : 40.6 MiB (100%)
Writing library : libFLAC 1.2.1 (UTC 2007-09-17)

General
Complete name : ColdplayX&Y (Special Dutch Edition) (CD 1-2)Coldplay - X&Y (Special Dutch Edition) (CD 1-2) - 10. The Hardest Part.flac
Format : FLAC
Format/Info : Free Lossless Audio Codec
File size : 31.6 MiB
Duration : 4mn 25s
Overall bit rate : 1 001 Kbps
Album : X&Y (Special Dutch Edition) (CD 1/2)
Track name : The Hardest Part
Track name/Position : 10
Performer : Coldplay
Genre : Rock / Pop
Recorded date : 2005

Audio
Format : FLAC
Format/Info : Free Lossless Audio Codec
Duration : 4mn 25s
Bit rate mode : Variable
Bit rate : 1 001 Kbps
Channel(s) : 2 channels
Sampling rate : 44.1 KHz
Resolution : 16 bits
Stream size : 31.6 MiB (100%)
Writing library : libFLAC 1.2.1 (UTC 2007-09-17)

General
Complete name : MusicColdplayX&Y (Special Dutch Edition) (CD 1-2)Coldplay - X&Y (Special Dutch Edition) (CD 1-2) - 11. Swallowed In The Sea.flac
Format : FLAC
Format/Info : Free Lossless Audio Codec
File size : 25.7 MiB
Duration : 3mn 58s
Overall bit rate : 901 Kbps
Album : X&Y (Special Dutch Edition) (CD 1/2)
Track name : Swallowed In The Sea
Track name/Position : 11
Performer : Coldplay
Genre : Rock / Pop
Recorded date : 2005

Audio
Format : FLAC
Format/Info : Free Lossless Audio Codec
Duration : 3mn 58s
Bit rate mode : Variable
Bit rate : 901 Kbps
Channel(s) : 2 channels
Sampling rate : 44.1 KHz
Resolution : 16 bits
Stream size : 25.7 MiB (100%)
Writing library : libFLAC 1.2.1 (UTC 2007-09-17)

General
Complete name : MusicColdplayX&Y (Special Dutch Edition) (CD 1-2)Coldplay - X&Y (Special Dutch Edition) (CD 1-2) - 12. Twisted Logic.flac
Format : FLAC
Format/Info : Free Lossless Audio Codec
File size : 29.9 MiB
Duration : 5mn 0s
Overall bit rate : 834 Kbps
Album : X&Y (Special Dutch Edition) (CD 1/2)
Track name : Twisted Logic
Track name/Position : 12
Performer : Coldplay
Genre : Rock / Pop
Recorded date : 2005

Audio
Format : FLAC
Format/Info : Free Lossless Audio Codec
Duration : 5mn 0s
Bit rate mode : Variable
Bit rate : 834 Kbps
Channel(s) : 2 channels
Sampling rate : 44.1 KHz
Resolution : 16 bits
Stream size : 29.9 MiB (100%)
Writing library : libFLAC 1.2.1 (UTC 2007-09-17)

General
Complete name : ColdplayX&Y (Special Dutch Edition) (CD 1-2)Coldplay - X&Y (Special Dutch Edition) (CD 1-2) - 13. 'til Kingdom Come.flac
Format : FLAC
Format/Info : Free Lossless Audio Codec
File size : 23.9 MiB
Duration : 4mn 10s
Overall bit rate : 801 Kbps
Album : X&Y (Special Dutch Edition) (CD 1/2)
Track name : 'til Kingdom Come
Track name/Position : 13
Performer : Coldplay
Genre : Rock / Pop
Recorded date : 2005

Audio
Format : FLAC
Format/Info : Free Lossless Audio Codec
Duration : 4mn 10s
Bit rate mode : Variable
Bit rate : 800 Kbps
Channel(s) : 2 channels
Sampling rate : 44.1 KHz
Resolution : 16 bits
Stream size : 23.9 MiB (100%)
Writing library : libFLAC 1.2.1 (UTC 2007-09-17)

Files:flac.
To listen i Yous Jet Audio.

This Is my first Shot At Flac.

Some Art

H33t.com

Tell A Friend.
***********************************************************************************************************************************************************************

Related torrents

Torrent NameAddedSizeSeedLeechHealth
1 Year+ - in Music299.47 MB00
1 Year+ - in Music502.14 MB01
1 Year+ - in Music1.56 GB127
1 Year+ - in Music1.56 GB00
1 Year+ - in Anime106.84 MB46

Comments (0 Comments)




Please login or create a FREE account to post comments

Latest Searches

| Ricky Martin Jennifer Lopez wisin | remember 1940 | blends mashups | devils night 2001 | 12216 | registration crack | HAIM single | Nubiles Porn Kandace Kayne | unforgiven 20th | playboy best latin america |