Quick Browse
Movies
TV shows
Music
Games
Applications
Anime
Other
Facebook
Advertising

Friends
Torrent Download
Movie4u
1337x.to
Torrent Downloads




Verified torrent Colombiana 2011 HDRip READNFO XviD AC3-BHP


    Seeders : 1      Leechers : 0
Hash :374CBFBB81C1846574AF1E6AC5BED6F6C709BD95
Added :1 Year+ by memory100Verified torrent uploader in Movies
Size :1.01 GB
Stream :WATCH ONLINE @ Movie4u


Colombiana 2011 HDRip READNFO XviD AC3-BHP
Free and Fast Download with Usenet 300GB+ free







Trackers List

Tracker NameLast CheckStatusSeedersLeechers




Torrent File Content (8 files)


Colombiana.2011.HDRip.READNFO.XviD.AC3-BHP
     Colombiana.2011.HDRip.READNFO.XviD.AC3-BHP.avi -
1 GB

     Colombiana.2011.HDRip.READNFO.XviD.AC3-BHP.nfo -
2.82 KB

     HDSceneRG.txt -
115 bytes

     Sample.avi -
10.1 MB

     Torrent downloaded from Demonoid.me.txt -
46 bytes

     Torrent downloaded from Suprnova.me.txt -
42 bytes

     att-networks.com.txt -
39 bytes

     sceneunderground.org.txt -
77 bytes



Description



http://img545.imageshack.us/img545/6363/posteril.jpg

[code]
Colombiana.2011.HDRip.READNFO.XviD.AC3-BHP

http://www.imdb.com/title/tt1657507

A young woman grows up to be a stone-cold assassin after witnessing her parents' murder as a
child in Bogota. She works for her uncle as a hitman by day, but her personal time is spent
engaging in vigilante murders that she hopes will lead her to her ultimate target - the
mobster responsible for her parents' death.

General
Format : AVI
Format/Info : Audio Video Interleave
File size : 1.00 GiB
Duration : 1h 47mn
Overall bit rate : 1 332 Kbps
Writing application : VirtualDubMod 1.5.10.2 (build 2540/release)
Writing library : VirtualDubMod build 2540/release

Video
ID : 0
Format : MPEG-4 Visual
Format profile : Advanced [email protected]
Format settings, BVOP : 2
Format settings, QPel : No
Format settings, GMC : No warppoints
Format settings, Matrix : Default (H.263)
Muxing mode : Packed bitstream
Codec ID : XVID
Codec ID/Hint : XviD
Duration : 1h 47mn
Bit rate : 1 130 Kbps
Width : 672 pixels
Height : 256 pixels
Display aspect ratio : 2.625
Frame rate : 23.976 fps
Color space : YUV
Chroma subsampling : 4:2:0
Bit depth : 8 bits
Scan type : Progressive
Compression mode : Lossy
Bits/(Pixel*Frame) : 0.274
Stream size : 872 MiB (85%)
Writing library : XviD 64

Audio
ID : 1
Format : AC-3
Format/Info : Audio Coding 3
Mode extension : CM (complete main)
Codec ID : 2000
Duration : 1h 47mn
Bit rate mode : Constant
Bit rate : 192 Kbps
Channel(s) : 2 channels
Channel positions : Front: L R
Sampling rate : 48.0 KHz
Bit depth : 16 bits
Compression mode : Lossy
Stream size : 148 MiB (14%)
Alignment : Split accross interleaves
Interleave, duration : 42 ms (1.00 video frame)
Interleave, preload duration : 500 ms

Notes
Partly cropped the korean subs, only 1 line will be visible now instead of the 2

Work done
cropped, resized and De interlaced, and shaprpend

[/code]
Screens:
http://img560.imageshack.us/img560/7364/93904153.png

http://img195.imageshack.us/img195/8961/60723743.png

Related torrents

Torrent NameAddedSizeSeedLeechHealth
1 Year+ - in Movies1.01 GB014
1 Year+ - in Movies1.01 GB1116
1 Year+ - in Movies1.39 GB3236
1 Year+ - in Movies1.54 GB01
1 Year+ - in Movies1.65 GB25

Comments (0 Comments)




Please login or create a FREE account to post comments

Latest Searches

| blackmails milf | prince baby | Indigo Vanity Tara Fox Back To Back | ftvgirls xvid | NaughtyAmerica Cali Carter | Una Vita Da Gatto 2016 iTALiAN MD BDRip XviD FLASH avi | Samurai world | Luna Star Anal About My Jeans | animation 2016 avi | the voice season studio mp3 |