Quick Browse
Movies
TV shows
Music
Games
Applications
Anime
Other
Facebook
Advertising

Friends
Torrent Download
Movie4u
1337x.to
Torrent Downloads




Verified torrent Columbus Circle 2012 720p BRRip XviD AC3-26k


    Seeders : 1      Leechers : 0
Hash :B2DE01BEE1E00565ED50DCD025B8DBCCB7B71086
Added :1 Year+ by memory100Verified torrent uploader in Movies
Size :2 GB
Stream :WATCH ONLINE @ Movie4u


Columbus Circle 2012 720p BRRip XviD AC3-26k
Free and Fast Download with Usenet 300GB+ free







Trackers List

Tracker NameLast CheckStatusSeedersLeechers




Torrent File Content (13 files)


Colombus Circle 2012 720p BRRip XviD AC3-26k
     1.png -
1.02 MB

     2.png -
286.6 KB

     26k nfo.nfo -
3.6 KB

     3.png -
305.3 KB

     4.png -
482.85 KB

     att-networks.com.txt -
39 bytes

     Colombus Circle 2012 720p BRRip XviD AC3-26k.avi -
1.99 GB

     Colombus Circle 2012 720p BRRip XviD AC3-26k.jpg -
121.35 KB

     HDSceneRG.txt -
115 bytes

     sceneunderground.org.txt -
77 bytes

     Torrent downloaded from Demonoid.me.txt -
46 bytes

     Torrent downloaded from rarbg.com.txt.txt -
0 bytes

     YouTube Latest Releases And Archive.txt -
80 bytes



Description



http://img836.imageshack.us/img836/1958/colum.jpg

[code]

Colombus Circle 2012 720p BRRip XviD AC3-26k

http://www.imdb.com/title/tt1465533/

Plot:
An heiress who's been shut inside her apartment building for nearly two decades is forced to confront

her
fears after one of her neighbors is killed and a detective arrives to begin the investigation.

Sources - Colombus.Circle.2012.1080p.BluRay.x264-CiNEFiLE.....Thanks :P

Format : AVI
Format/Info : Audio Video Interleave
Format profile : OpenDML
File size : 1.99 GiB
Duration : 1h 25mn
Overall bit rate : 3 324 Kbps
Writing library : VirtualDub build 32842/release

Video
ID : 0
Format : MPEG-4 Visual
Format profile : Advanced [email protected]
Format settings, BVOP : 2
Format settings, QPel : No
Format settings, GMC : No warppoints
Format settings, Matrix : Default (H.263)
Codec ID : XVID
Codec ID/Hint : XviD
Duration : 1h 25mn
Bit rate : 2 672 Kbps
Width : 1 280 pixels
Height : 528 pixels
Display aspect ratio : 2.40:1
Frame rate : 23.976 fps
Color space : YUV
Chroma subsampling : 4:2:0
Bit depth : 8 bits
Scan type : Progressive
Compression mode : Lossy
Bits/(Pixel*Frame) : 0.165
Stream size : 1.60 GiB (80%)
Writing library : XviD 1.2.1 (UTC 2008-12-04)

Audio
ID : 1
Format : AC-3
Format/Info : Audio Coding 3
Mode extension : CM (complete main)
Codec ID : 2000
Duration : 1h 25mn
Bit rate mode : Constant
Bit rate : 640 Kbps
Channel(s) : 6 channels
Channel positions : Front: L C R, Side: L R, LFE
Sampling rate : 48.0 KHz
Bit depth : 16 bits
Compression mode : Lossy
Stream size : 393 MiB (19%)
Alignment : Split accross interleaves
Interleave, duration : 42 ms (1.00 video frame)
Interleave, preload duration : 500 ms




Notes -

Did my thing.. turned out real nice... enjoy

[/code]

Screens:
http://i.imgur.com/LyiVD.png

http://i.imgur.com/kH7Ug.jpg

http://img692.imageshack.us/img692/5361/colombuscircle2012720pb.jpg

http://img826.imageshack.us/img826/8712/24067973.png

http://img684.imageshack.us/img684/417/15423044.png


Greetz:
Xtreme

Encode|FYA|ILLUMANTI|CM8|RX|VISI​ON|HDSCENE|xTriLL|DTRG|CRYS|REMIX​HD|BIDA|RX|REFILL|INSPiRAL|SIC|
|HO​PE|Anonymous|GooN
To all the people who have helped me you know who you are

Anything to offer email us @: [email protected]

http://img851.imageshack.us/img851/5503/26ks.jpg

Thank you smallz for b

Related torrents

Torrent NameAddedSizeSeedLeechHealth
1 Year+ - in Movies2 GB367
Verified torrent
1 Year+ - in Movies2.36 GB10
Verified torrent
1 Year+ - in Movies3.49 GB10
Verified torrent
1 Year+ - in Movies2.34 GB10
Verified torrent
1 Year+ - in Movies3.07 GB10

Comments (0 Comments)




Please login or create a FREE account to post comments

Latest Searches

| AC Naruto Shippuden Season 1 20 | dover devil came to m | Noelle Easton Valentina Nappi | ita antboy | christmas rockin | trouble with temptation | Night Ranger 35 years and night | anissa kate2016 | The Official UK Top 40 Singles Chart 10th December 2016 MP3 | e cuentame |