Quick Browse
Movies
TV shows
Music
Games
Applications
Anime
Other
Facebook
Advertising

Friends
Torrent Download
Movie4u
1337x.to
Torrent Downloads




Verified torrent Columbus Circle 2012 DVDRip XviD AC3-26k


    Seeders : 1      Leechers : 0
Hash :603EECAFCF63882826DD3DE1732BFF865980992B
Added :1 Year+ by memory100Verified torrent uploader in Movies
Size :1.41 GB
Stream :WATCH ONLINE @ Movie4u


Columbus Circle 2012 DVDRip XviD AC3-26k
Free and Fast Download with Usenet 300GB+ free







Trackers List

Tracker NameLast CheckStatusSeedersLeechers




Torrent File Content (13 files)


Columbus Circle 2012 DVDRip XviD AC3-26k
     1.png -
295.86 KB

     2.png -
228.37 KB

     26k nfo.nfo -
3.42 KB

     3.png -
231.47 KB

     4.png -
309.26 KB

     att-networks.com.txt -
39 bytes

     Columbus Circle 2012 DVDRip XviD AC3-26k.avi -
1.41 GB

     Columbus Circle 2012 DVDRip XviD AC3-26k.jpg -
121.69 KB

     HDSceneRG.txt -
115 bytes

     sceneunderground.org.txt -
77 bytes

     Torrent downloaded from Demonoid.me.txt -
46 bytes

     Torrent downloaded from rarbg.com.txt.txt -
0 bytes

     YouTube Latest Releases And Archive.txt -
80 bytes



Description



http://img862.imageshack.us/img862/1247/km5ej.jpg


[code]

Columbus Circle 2012 DVDRip XviD AC3-26k

http://www.imdb.com/title/tt1465533/

Plot:
An heiress who's been shut inside her apartment building for nearly two decades is forced to confront

her
fears after one of her neighbors is killed and a detective arrives to begin the investigation.

Sources - PAL DVD5...Thanks :P

Format : AVI
Format/Info : Audio Video Interleave
File size : 1.41 GiB
Duration : 1h 22mn
Overall bit rate : 2 457 Kbps

Video
ID : 0
Format : MPEG-4 Visual
Format profile : Advanced [email protected]
Format settings, BVOP : 1
Format settings, QPel : No
Format settings, GMC : No warppoints
Format settings, Matrix : Default (H.263)
Codec ID : XVID
Codec ID/Hint : XviD
Duration : 1h 22mn
Bit rate : 2 002 Kbps
Width : 720 pixels
Height : 288 pixels
Display aspect ratio : 2.500
Frame rate : 25.000 fps
Color space : YUV
Chroma subsampling : 4:2:0
Bit depth : 8 bits
Scan type : Progressive
Compression mode : Lossy
Bits/(Pixel*Frame) : 0.386
Stream size : 1.15 GiB (81%)
Writing library : XviD 1.2.1 (UTC 2008-12-04)

Audio
ID : 1
Format : AC-3
Format/Info : Audio Coding 3
Mode extension : CM (complete main)
Codec ID : 2000
Duration : 1h 22mn
Bit rate mode : Constant
Bit rate : 448 Kbps
Channel(s) : 6 channels
Channel positions : Front: L C R, Side: L R, LFE
Sampling rate : 48.0 KHz
Bit depth : 16 bits
Compression mode : Lossy
Stream size : 264 MiB (18%)
Alignment : Aligned on interleaves
Interleave, duration : 64 ms (1.60 video frames)
Interleave, preload duration : 192 ms




Notes -
Did my thing.. turned out real nice... enjoy

[/code]
Screens:
http://i.imgur.com/rw8kw.png

http://i.imgur.com/0GcCT.png

http://img842.imageshack.us/img842/7205/columbuscircle2012dvdri.jpg

http://img835.imageshack.us/img835/3507/28233731.png

http://img837.imageshack.us/img837/3589/92322434.png


Alternative screens:
http://dippic.com/nkvjd0k1tbkg
http://imgdepot.org/show/20120226/2/358083_3.png
http://www.imageporter.com/c3bpg2v884qp/vlcsnap-2012-02-26-00h36m50s73.png

Greetz:
Xtreme

Encode|FYA|ILLUMANTI|CM8|RX|VISI​ON|HDSCENE|xTriLL|DTRG|CRYS|REMIX​HD|BIDA|RX|REFILL|INSPiRAL|SIC|
|HO​PE|Anonymous|GooN
To all the people who have helped me you know who you are

Anything to offer email us @: [email protected]


http://img851.imageshack.us/img851/5503/26ks.jpg

Thank you smallz for banner!

Related torrents

Torrent NameAddedSizeSeedLeechHealth
1 Year+ - in Movies1.16 GB163
1 Year+ - in Movies1.43 GB01
1 Year+ - in Movies1.43 GB04
1 Year+ - in Movies1.44 GB13
1 Year+ - in Movies1.26 GB01

Comments (0 Comments)




Please login or create a FREE account to post comments

Latest Searches

| humans s02e05 xvid | Jillian Janson Anya Olsen Hot Vacation With My Best Friend | Westworld S01E10 1080p HBO WEBRip | Drake ft future u | theres a lot of going on | saw x265 1080p | acoustic compilation | fuck thy | Learn android app development with java | tchaikovsky mozart brahms |