Quick Browse
Movies
TV shows
Music
Games
Applications
Anime
Other
Facebook
Advertising

Friends
Torrent Download
Movie4u
1337x.to
Torrent Downloads




Conan The Barbarian 2011-MP4 AAC-BRRip-CC


    Seeders : 66      Leechers : 102
Hash :A9C580A62C9C9B983FD391637EF70D06D6D57C25
Added :1 Year+ by Cavemania in Movies
Size :1.75 GB
Stream :WATCH ONLINE @ Movie4u


Conan The Barbarian 2011-MP4 AAC-BRRip-CC
Free and Fast Download with Usenet 300GB+ free







Trackers List

Tracker NameLast CheckStatusSeedersLeechers




Torrent File Content (8 files)


Conan The Barbarian 2011-MP4 AAC-BRRip-CC
    Screens-Info
          Conan The Barbarian 2011-MP4 AAC-BRRip-CC-Screens.jpg -
219.04 KB

          Info.txt -
3.63 KB

     Conan The Barbarian 2011-MP4 AAC-BRRip-CC.mp4 -
1.74 GB

     Conan The Barbarian 2011-MP4 AAC-BRRip-CC Sample.mp4 -
14.54 MB

     Torrent downloaded from extratorrent.com.txt -
83 bytes

     Torrent_downloaded_from_AhaShare.com.txt -
63 bytes

     Torrent downloaded from Demonoid.me.txt -
46 bytes

     Torrent Downloaded from SilverTorrents.me.txt -
41 bytes



Description



http://img62.imageshack.us/img62/9605/conanthebarbarianv2.jpg


http://www.imdb.com/title/tt0816462/

Source: Conan.The.Barbarian.2011.BluRay.720p.DTS.x264-CHD

Subs: None

Sample and Screens included.

General
Complete name : Conan The Barbarian 2011-MP4 AAC-BRRip-CC\Conan The Barbarian 2011-MP4 AAC-BRRip-CC.mp4
Format : MPEG-4
Format profile : Base Media
Codec ID : isom
File size : 1.74 GiB
Duration : 1h 52mn
Overall bit rate : 2 208 Kbps
Encoded date : UTC 2011-11-04 13:26:19
Tagged date : UTC 2011-11-04 13:26:19
Writing application : Yamb 2.1.0.0

Video
ID : 1
Format : AVC
Format/Info : Advanced Video Codec
Format profile : [email protected]
Format settings, CABAC : Yes
Format settings, ReFrames : 1 frame
Codec ID : avc1
Codec ID/Info : Advanced Video Coding
Duration : 1h 52mn
Bit rate mode : Variable
Bit rate : 1 821 Kbps
Nominal bit rate : 1 832 Kbps
Maximum bit rate : 7 921 Kbps
Width : 720 pixels
Height : 304 pixels
Display aspect ratio : 2.35:1
Frame rate mode : Variable
Frame rate : 23.976 fps
Minimum frame rate : 23.810 fps
Maximum frame rate : 24.390 fps
Resolution : 8 bits
Colorimetry : 4:2:0
Scan type : Progressive
Bits/(Pixel*Frame) : 0.347
Stream size : 1.43 GiB (82%)
Writing library : x264 core 65
Encoding settings : cabac=1 / ref=1 / deblock=1:0:0 / analyse=0x1:0x111 / me=hex / subme=6 / psy_rd=1.0:0.0 / mixed_ref=0 / me_range=16 / chroma_me=1 / trellis=0 / 8x8dct=0 / cqm=0 / deadzone=21,11 / chroma_qp_offset=-2 / threads=3 / nr=0 / decimate=1 / mbaff=0 / bframes=0 / keyint=240 / keyint_min=24 / scenecut=40(pre) / rc=abr / bitrate=1832 / ratetol=1.0 / qcomp=0.60 / qpmin=10 / qpmax=51 / qpstep=4 / ip_ratio=1.40 / aq=1:1.00
Encoded date : UTC 2011-11-05 11:06:57
Tagged date : UTC 2011-11-04 13:28:40
Color primaries : BT.709-5, BT.1361, IEC 61966-2-4, SMPTE RP177
Transfer characteristics : BT.709-5, BT.1361
Matrix coefficients : BT.709-5, BT.1361, IEC 61966-2-4 709, SMPTE RP177

Audio
ID : 2
Format : AAC
Format/Info : Advanced Audio Codec
Format version : Version 4
Format profile : LC
Format settings, SBR : No
Codec ID : 40
Duration : 1h 52mn
Bit rate mode : Variable
Bit rate : 384 Kbps
Maximum bit rate : 584 Kbps
Channel(s) : 6 channels
Channel positions : Front: L C R, Rear: L R, LFE
Sampling rate : 48.0 KHz
Stream size : 310 MiB (17%)
Language : English
Encoded date : UTC 2011-11-04 13:28:01
Tagged date : UTC 2011-11-04 13:28:40

http://img12.imageshack.us/img12/2301/conanthebarbarian2011mp.jpg

Related torrents

Torrent NameAddedSizeSeedLeechHealth
1 Year+ - in Movies1.56 GB110
1 Year+ - in Movies817.48 MB05
1 Comments
1 Bad
Verified torrent
1 Year+ - in Movies817.48 MB111
Verified torrent
5 months ago - in Movies1.65 GB347311
2 months ago - in Movies7.73 GB00

Comments (0 Comments)




Please login or create a FREE account to post comments

Latest Searches

| The People V O J Simpson American Crime Story | enigmas del cosmos | Kinect Sports | dont u worry child remix | red book of infectious diseases | La Mosca Spa | HDScape StarGaze HD Universal Beauty 2008 | dark chocolate 2016 hindi | Sully BRRip XviD AC3 RARBG | cashin out cash out |