Quick Browse
Movies
TV shows
Music
Games
Applications
Anime
Other
Facebook
Advertising

Friends
Torrent Download
Movie4u
1337x.to
Torrent Downloads




Conan The Barbarian 2011 TS READNFO XviD-iLLUSiON


    Seeders : 3      Leechers : 129
Hash :8B445063647A72F294AEDE41737E4C4F86167128
Added :1 Year+ by jumbotorrentsxVerified torrent uploader in Movies
Size :1.27 GB
Stream :WATCH ONLINE @ Movie4u


Conan The Barbarian 2011 TS READNFO XviD-iLLUSiON
Free and Fast Download with Usenet 300GB+ free







Trackers List

Tracker NameLast CheckStatusSeedersLeechers




Torrent File Content (7 files)


Conan The Barbarian 2011 TS READNFO XviD-iLLUSiON
    Screenshots
          vlcsnap-2011-10-14-13h58m57s35.png -
349.86 KB

          vlcsnap-2011-10-14-13h59m09s160.png -
344.05 KB

          vlcsnap-2011-10-14-13h59m13s218.png -
196 KB

     Conan The Barbarian 2011 TS READNFO XviD-iLLUSiON.avi -
1.27 GB

     Conan The Barbarian 2011 TS READNFO XviD-iLLUSiON.nfo -
226 bytes

     Torrent downloaded from Limetorrents.com.txt -
48 bytes

     Torrent downloaded from Demonoid.me.txt -
46 bytes



Description



http://shareimage.org/images/za1gq8i8g2bigo8l0ptk.png


http://shareimage.org/images/uo5z5rc99d04nlvuyzc6.jpg


http://shareimage.org/images/hvthwllu7rgf1jtcgup.jpg


http://shareimage.org/images/k20y0albh960ard8phr.jpg


[code]
Movie Info
Plot: The tale of Conan the Cimmerian and his adventures across the continent of
Hyboria on a quest to avenge the murder of his father and the slaughter of his village.
IMDB: http://www.imdb.com/title/tt0816462/
IMDB Rating: 5.5
Trailer: http://www.youtube.com/watch?v=iPQ99y8KaTU



General Info
Size: 1.24GB
Format: AVI
Runtime: 1:43:13



Sources
Video - Konan varvar.2011.CamRip.XviD.JRG
Audio - Conan The Barbarian 2011 TS XViD - REVELATiON
(THANKS)



Video Info
ID : 0
Format : MPEG-4 Visual
Format profile : Advanced [email protected]
Format settings, BVOP : 2
Format settings, QPel : No
Format settings, GMC : No warppoints
Format settings, Matrix : Default (H.263)
Muxing mode : Packed bitstream
Codec ID : XVID
Codec ID/Hint : XviD
Duration : 1h 43mn
Bit rate : 1 587 Kbps
Width : 720 pixels
Height : 304 pixels
Display aspect ratio : 2.35:1
Frame rate : 25.000 fps
Color space : YUV
Chroma subsampling : 4:2:0
Bit depth : 8 bits
Scan type : Progressive
Compression mode : Lossy
Bits/(Pixel*Frame) : 0.290
Stream size : 1.14 GiB (92%)
Writing library : XviD 58


Audio Info
ID : 1
Format : MPEG Audio
Format version : Version 1
Format profile : Layer 3
Mode : Joint stereo
Mode extension : MS Stereo
Codec ID : 55
Codec ID/Hint : MP3
Duration : 1h 43mn
Bit rate mode : Constant
Bit rate : 128 Kbps
Channel(s) : 2 channels
Sampling rate : 44.1 KHz
Compression mode : Lossy
Stream size : 94.5 MiB (7%)
Alignment : Split accross interleaves
Interleave, duration : 40 ms (1.00 video frame)
Interleave, preload duration : 500 ms
Writing library : LAME3.98r
Encoding settings : -m j -V 4 -q 2 -lowpass 17 -b 128
[/code]

Related torrents

Torrent NameAddedSizeSeedLeechHealth
1 Year+ - in Movies1.27 GB113
1 Year+ - in Movies1.27 GB174232
1 Year+ - in Movies1.27 GB1197
1 Year+ - in Movies1.27 GB00
1 Year+ - in Movies1.27 GB00

Comments (0 Comments)




Please login or create a FREE account to post comments

Latest Searches

| hunter x hunter 027 | Tyga 1 1 | Jessie J | Lucie Cline NaughtyAmerica | va top 5 november 2016 | dont call me shakka | molly jane i need to get ready for school | for the love of s | Nicky Minaj turn me o | Lol fidelity Allstars |