Quick Browse
Movies
TV shows
Music
Games
Applications
Anime
Other
Facebook
Advertising

Friends
Torrent Download
Movie4u
1337x.to
Torrent Downloads




Contraband 2012 CaM XviD - ILLUMINATI


    Seeders : 0      Leechers : 0
Hash :58DF0DECADFA9C4CB442A8429DFA8EAB496944C6
Added :1 Year+ by addic1ed in Movies
Size :1.44 GB
Stream :WATCH ONLINE @ Movie4u


Contraband 2012 CaM XviD - ILLUMINATI
Free and Fast Download with Usenet 300GB+ free







Trackers List

Tracker NameLast CheckStatusSeedersLeechers




Torrent File Content (10 files)


Contraband 2012 CaM XviD - ILLUMINATI
     Contraband 2012 CaM XviD - ILLUMINATI.rar -
1.43 GB

     Contraband-2012-Movie-Poster.jpg -
2.7 MB

    Screens
          6.PNG -
305.08 KB

          4.PNG -
240.65 KB

          2.PNG -
240.22 KB

          5.PNG -
217.67 KB

          3.PNG -
193.71 KB

          1.PNG -
122.88 KB

     Contraband 2012 CaM XviD - ILLUMINATI.nfo -
2.54 KB

     Torrent downloaded from Demonoid.me.txt -
46 bytes



Description



Contraband 2012 CaM XviD - ILLUMINATI

http://www.imdb.com/title/tt1524137/

Plot:
To protect his brother-in-law from a drug lord, a former smuggler heads to Panama to score millions of dollars in counterfeit bills.

Info:

Video
ID : 0
Format : MPEG-4 Visual
Format profile : Advanced [email protected]
Format settings, BVOP : 2
Format settings, QPel : No
Format settings, GMC : No warppoints
Format settings, Matrix : Default (H.263)
Codec ID : XVID
Codec ID/Hint : XviD
Duration : 1h 50mn
Bit rate : 1 892 Kbps
Width : 720 pixels
Height : 304 pixels
Display aspect ratio : 2.35:1
Frame rate : 25.000 fps
Color space : YUV
Chroma subsampling : 4:2:0
Bit depth : 8 bits
Scan type : Progressive
Compression mode : Lossy
Bits/(Pixel*Frame) : 0.346
Stream size : 1.32 GiB (93%)

Audio
ID : 1
Format : MPEG Audio
Format version : Version 1
Format profile : Layer 3
Mode : Joint stereo
Mode extension : MS Stereo
Codec ID : 55
Codec ID/Hint : MP3
Duration : 1h 50mn
Bit rate mode : Constant
Bit rate : 128 Kbps
Channel(s) : 2 channels
Sampling rate : 44.1 KHz
Compression mode : Lossy
Stream size : 91.2 MiB (6%)
Alignment : Aligned on interleaves
Interleave, duration : 40 ms (1.00 video frame)
Writing library : LAME3.98r
Encoding settings : -m j -V 4 -q 2 -lowpass 17 -b 128

Screens:
http://img832.imageshack.us/img832/9972/99035033.png

http://img580.imageshack.us/img580/1162/76891537.png

http://img14.imageshack.us/img14/142/55606868.png

http://img560.imageshack.us/img560/6061/14785924.png

http://img163.imageshack.us/img163/7261/46794902.png

http://img7.imageshack.us/img7/6959/60361064.png



Greets To All Doing There Thing To SUpport P2P And The Scenes

Related torrents

Torrent NameAddedSizeSeedLeechHealth
1 Year+ - in Movies1 GB00
1 Year+ - in Movies1 GB121
1 Year+ - in Movies1.02 GB041
1 Year+ - in Movies1.39 GB05
1 Year+ - in Movies1.39 GB227

Comments (0 Comments)




Please login or create a FREE account to post comments

Latest Searches

| nelly derrty | scream the tv series s02e01 web dl xvid fum ettv avi | safe passage | Christmas album country | Fortran Programming eBooks Archive | va 20 christmas classics motown gnv64 | ARRG Noragami Noragami Aragoto English Dubbed 720P | general hospital october 19 2016 | love rb | sleeping latina |